Dracula Sir (2020) Bengali 720p HEVC WEB-DL x265 AAC 300mb [MechBoy]

  • CategoryMovies
  • TypeHEVC/x265
  • LanguageBengali/Bangla
  • Total size304 MB
  • Uploaded ByStathamIN
  • Downloads1058
  • Last checkedDec. 15th '20
  • Date uploadedDec. 12th '20
  • Seeders 22
  • Leechers3

Dracula Sir

Thriller

A small town school teacher with protruding canine teeth finds that he has striking similarities with the legendary Count Dracula.

Infohash : 6DC14F84EBC8C7A29FE3705EBF1E503F7AA668A5



Dracula Sir (2020) Bengali 720p HEVC WEB-DL x265 AAC 300mb [MechBoy]





..:: MEDIA INFO ::..


Format : Matroska
Format version : Version 4 / Version 2
File size : 304 MiB
Duration : 2 h 4 min
Overall bit rate : 341 kb/s
Encoded date : UTC 2020-12-11 14:15:12
Writing application : mkvmerge v42.0.0 ('Overtime') 64-bit
Writing library : libebml v1.3.10 + libmatroska v1.5.2

Video
ID : 1
Format : HEVC
Format/Info : High Efficiency Video Coding
Format profile : [email protected]@Main
Codec ID : V_MPEGH/ISO/HEVC
Duration : 2 h 4 min
Bit rate : 243 kb/s
Width : 1 158 pixels
Height : 480 pixels
Display aspect ratio : 2.40:1
Frame rate mode : Variable
Frame rate : 24.000 FPS
Color space : YUV
Chroma subsampling : 4:2:0
Bit depth : 8 bits
Bits/(Pixel*Frame) : 0.018
Stream size : 216 MiB (71%)
Writing library : x265 3.4_RC1+3-18610b4f88bc:[Linux][GCC 9.3.0][64 bit] 8bit
Language : Bengali
Default : Yes
Forced : No
Color range : Limited

Audio
ID : 2
Format : AAC
Format/Info : Advanced Audio Codec
Format profile : LC
Codec ID : A_AAC
Duration : 2 h 4 min
Bit rate : 96.0 kb/s
Channel(s) : 2 channels
Channel positions : Front: L R
Sampling rate : 48.0 kHz
Frame rate : 46.875 FPS (1024 SPF)
Compression mode : Lossy
Stream size : 86.0 MiB (28%)
Language : Bengali
Default : Yes
Forced : No




..:: SCREENSHOTS ::..












Files:

Dracula Sir (2020) Bengali 720p HEVC WEB-DL x265 AAC 300mb [MechBoy]
  • For More ViSiT Us.txt (0.2 KB)
  • Dracula Sir (2020) Bengali 720p HEVC WEB-DL x265 AAC 300mb [MechBoy].mkv (304.0 MB)

Code:

  • udp://tracker.opentrackr.org:1337/announce
  • udp://9.rarbg.to:2710/announce
  • udp://9.rarbg.me:2710/announce
  • udp://tracker.leechers-paradise.org:6969/announce
  • udp://tracker.cyberia.is:6969/announce
  • udp://exodus.desync.com:6969/announce
  • udp://explodie.org:6969/announce
  • udp://tracker3.itzmx.com:6961/announce
  • http://tracker1.itzmx.com:8080/announce
  • udp://p4p.arenabg.ch:1337/announce
  • http://p4p.arenabg.com:1337/announce
  • udp://tracker.tiny-vps.com:6969/announce
  • udp://open.stealth.si:80/announce
  • udp://tracker.zerobytes.xyz:1337/announce
  • udp://tracker.ds.is:6969/announce
  • udp://open.demonii.si:1337/announce
  • udp://tracker.torrent.eu.org:451/announce
  • udp://retracker.lanta-net.ru:2710/announce
  • http://open.acgnxtracker.com:80/announce
  • udp://ipv4.tracker.harry.lu:80/announce