Wonder Woman 1984 2020 1080p 10bit IMAX WEBRip [Hindi Clean 2.0 -...

  • Category Movies
  • Type Dubs/Dual Audio
  • Language Hindi
  • Total size 2.8 GB
  • Uploaded By movieslover
  • Downloads 22169
  • Last checked 3 weeks ago
  • Date uploaded 1 month ago
  • Seeders 343
  • Leechers 69

Infohash : 4597C937A00E9BCE6E185AFEEC8B61C0C123CAD4





General
Unique ID                                : 131076322932444804651740514062174974241 (0x629C61AC2F3A298A88082893F0EAF121)
Complete name                            : D:\Encode\Done\Wonder Woman 1984 2020 1080p 10bit IMAX WEBRip [Hindi Clean 2.0 - English 5.1] x265 - MoviePirate - Telly.mkv
Format                                   : Matroska
Format version                           : Version 4
File size                                : 2.83 GiB
Duration                                 : 2 h 31 min
Overall bit rate                         : 2 684 kb/s
Movie name                               : MoviePirate - Team Telly
Encoded date                             : UTC 2020-12-26 06:16:29
Writing application                      : mkvmerge v40.0.0 ('Old Town Road + Pony') 64-bit
Writing library                          : libebml v1.3.9 + libmatroska v1.5.2
Video
ID                                       : 1
Format                                   : HEVC
Format/Info                              : High Efficiency Video Coding
Format profile                           : Main [email protected]@Main
Codec ID                                 : V_MPEGH/ISO/HEVC
Duration                                 : 2 h 31 min
Bit rate                                 : 2 298 kb/s
Width                                    : 1 920 pixels
Height                                   : 1 080 pixels
Display aspect ratio                     : 16:9
Frame rate mode                          : Constant
Frame rate                               : 23.976 (24000/1001) FPS
Color space                              : YUV
Chroma subsampling                       : 4:2:0
Bit depth                                : 10 bits
Bits/(Pixel*Frame)                       : 0.046
Stream size                              : 2.43 GiB (86%)
Title                                    : MoviePirate - Team Telly
Writing library                          : x265 3.2+9-971180b100f8:[Windows][GCC 9.2.0][64 bit] 10bit
Encoding settings                        : cpuid=1111039 / frame-threads=2 / numa-pools=4 / wpp / no-pmode / no-pme / no-psnr / no-ssim / log-level=2 / input-csp=1 / input-res=1920x1080 / interlace=0 / total-frames=217369 / level-idc=0 / high-tier=1 / uhd-bd=0 / ref=2 / no-allow-non-conformance / no-repeat-headers / annexb / no-aud / no-hrd / info / hash=0 / no-temporal-layers / open-gop / min-keyint=23 / keyint=250 / gop-lookahead=0 / bframes=4 / b-adapt=0 / b-pyramid / bframe-bias=0 / rc-lookahead=15 / lookahead-slices=6 / scenecut=40 / radl=0 / no-splice / no-intra-refresh / ctu=64 / min-cu-size=8 / no-rect / no-amp / max-tu-size=32 / tu-inter-depth=1 / tu-intra-depth=1 / limit-tu=0 / rdoq-level=0 / dynamic-rd=0.00 / no-ssim-rd / signhide / no-tskip / nr-intra=0 / nr-inter=0 / no-constrained-intra / strong-intra-smoothing / max-merge=2 / limit-refs=3 / no-limit-modes / me=1 / subme=2 / merange=57 / temporal-mvp / no-frame-dup / no-hme / weightp / no-weightb / no-analyze-src-pics / deblock=0:0 / sao / no-sao-non-deblock / rd=2 / selective-sao=4 / early-skip / rskip / fast-intra / no-tskip-fast / no-cu-lossless / no-b-intra / no-splitrd-skip / rdpenalty=0 / psy-rd=2.00 / psy-rdoq=0.00 / no-rd-refine / no-lossless / cbqpoffs=0 / crqpoffs=0 / rc=abr / bitrate=2300 / qcomp=0.60 / qpstep=4 / stats-write=0 / stats-read=0 / ipratio=1.40 / pbratio=1.30 / aq-mode=2 / aq-strength=1.00 / cutree / zone-count=0 / no-strict-cbr / qg-size=32 / no-rc-grain / qpmax=69 / qpmin=0 / no-const-vbv / sar=0 / overscan=0 / videoformat=5 / range=0 / colorprim=1 / transfer=1 / colormatrix=1 / chromaloc=0 / display-window=0 / cll=0,0 / min-luma=0 / max-luma=1023 / log2-max-poc-lsb=8 / vui-timing-info / vui-hrd-info / slices=1 / no-opt-qp-pps / no-opt-ref-list-length-pps / no-multi-pass-opt-rps / scenecut-bias=0.05 / no-opt-cu-delta-qp / no-aq-motion / no-hdr / no-hdr-opt / no-dhdr10-opt / no-idr-recovery-sei / analysis-reuse-level=5 / scale-factor=0 / refine-intra=0 / refine-inter=0 / refine-mv=1 / refine-ctu-distortion=0 / no-limit-sao / ctu-info=0 / no-lowpass-dct / refine-analysis-type=0 / copy-pic=1 / max-ausize-factor=1.0 / no-dynamic-refine / no-single-sei / no-hevc-aq / no-svt / no-field / qp-adaptation-range=1.00
Default                                  : Yes
Forced                                   : No
Color range                              : Limited
Color primaries                          : BT.709
Transfer characteristics                 : BT.709
Matrix coefficients                      : BT.709
Audio #1
ID                                       : 2
Format                                   : AC-3
Format/Info                              : Audio Coding 3
Commercial name                          : Dolby Digital
Codec ID                                 : A_AC3
Duration                                 : 2 h 31 min
Bit rate mode                            : Constant
Bit rate                                 : 128 kb/s
Channel(s)                               : 2 channels
Channel layout                           : L R
Sampling rate                            : 44.1 kHz
Frame rate                               : 28.711 FPS (1536 SPF)
Compression mode                         : Lossy
Delay relative to video                  : 1 s 300 ms
Stream size                              : 138 MiB (5%)
Title                                    : MoviePirate - Team Telly
Language                                 : Hindi
Service kind                             : Complete Main
Default                                  : Yes
Forced                                   : No
Audio #2
ID                                       : 3
Format                                   : AAC LC SBR
Format/Info                              : Advanced Audio Codec Low Complexity with Spectral Band Replication
Commercial name                          : HE-AAC
Format settings                          : Explicit
Codec ID                                 : A_AAC-2
Duration                                 : 2 h 31 min
Bit rate                                 : 256 kb/s
Channel(s)                               : 6 channels
Channel layout                           : C L R Ls Rs LFE
Sampling rate                            : 48.0 kHz
Frame rate                               : 23.438 FPS (2048 SPF)
Compression mode                         : Lossy
Stream size                              : 277 MiB (10%)
Title                                    : MoviePirate - Team Telly
Language                                 : English
Default                                  : No
Forced                                   : No
Text #1
ID                                       : 4
Format                                   : UTF-8
Codec ID                                 : S_TEXT/UTF8
Codec ID/Info                            : UTF-8 Plain Text
Duration                                 : 2 h 26 min
Bit rate                                 : 51 b/s
Count of elements                        : 3167
Stream size                              : 55.1 KiB (0%)
Title                                    : MoviePirate - Team Telly
Language                                 : English
Default                                  : Yes
Forced                                   : Yes
Text #2
ID                                       : 5
Format                                   : UTF-8
Codec ID                                 : S_TEXT/UTF8
Codec ID/Info                            : UTF-8 Plain Text
Duration                                 : 2 h 27 min
Bit rate                                 : 45 b/s
Count of elements                        : 1866
Stream size                              : 49.2 KiB (0%)
Language                                 : English
Default                                  : No
Forced                                   : No

Notes : Hindi Audio - MoviezAddiction (Thanks!!), WEB-DL - ViSiON , English Subtitles Fixed










Files:

  • Wonder Woman 1984 2020 1080p 10bit IMAX WEBRip [Hindi Clean 2.0 - English 5.1] x265 - MoviePirate - Telly.mkv (2.8 GB)

There are currently no comments. Feel free to leave one :)

Code:

  • udp://tracker.coppersurfer.tk:6969/announce
  • udp://tracker.leechers-paradise.org:6969/announce
  • udp://open.stealth.si:80/announce
  • udp://tracker.internetwarriors.net:1337/announce
  • udp://tracker.openbittorrent.com:80/announce
  • udp://explodie.org:6969/announce
  • udp://tracker.opentrackr.org:1337/announce
  • udp://tracker.tiny-vps.com:6969/announce
  • udp://open.demonii.si:1337/announce
  • udp://tracker.torrent.eu.org:451/announce
  • udp://tracker.pirateparty.gr:6969/announce
  • udp://ipv4.tracker.harry.lu:80/announce
  • udp://tracker.cyberia.is:6969/announce
  • udp://9.rarbg.to:2710/announce
  • udp://denis.stalker.upeer.me:6969/announce