Vikings.S06E11.1080p.WEB.H264-GLHF

  • Category TV
  • Type HD
  • Language English
  • Total size 2.5 GB
  • Uploaded By prudence25
  • Downloads 13236
  • Last checked 1 week ago
  • Date uploaded 2 weeks ago
  • Seeders 946
  • Leechers 417
90%
January 2, 2021, 3:00 am

Vikings

Ubbe discovers the truth about Kjetill in Iceland and must make a difficult decision. The battle against the Rus leads to grave consequences.

Infohash : 8D3A290F916D3050C3039229AA28D8F558E7FDBA

Code:

Video
ID : 1
Format : AVC
Format/Info : Advanced Video Codec
Format profile : [email protected]
Format settings : CABAC / 4 Ref Frames
Format settings, CABAC : Yes
Format settings, Reference frames : 4 frames
Codec ID : V_MPEG4/ISO/AVC
Duration : 45 min 41 s
Bit rate mode : Constant
Bit rate : 7 096 kb/s
Nominal bit rate : 10 000 kb/s
Width : 1 920 pixels
Height : 1 080 pixels
Display aspect ratio : 16:9
Frame rate mode : Constant
Frame rate : 23.976 (24000/1001) FPS
Color space : YUV
Chroma subsampling : 4:2:0
Bit depth : 8 bits
Scan type : Progressive
Bits/(Pixel*Frame) : 0.143
Stream size : 2.26 GiB (90%)
Default : Yes
Forced : No
Color range : Limited
Color primaries : BT.709
Transfer characteristics : BT.709
Matrix coefficients : BT.709

Audio
ID : 2
Format : E-AC-3
Format/Info : Enhanced AC-3
Commercial name : Dolby Digital Plus
Codec ID : A_EAC3
Duration : 45 min 41 s
Bit rate mode : Constant
Bit rate : 640 kb/s
Channel(s) : 6 channels
Channel layout : L R C LFE Ls Rs
Sampling rate : 48.0 kHz
Frame rate : 31.250 FPS (1536 SPF)
Compression mode : Lossy
Stream size : 209 MiB (8%)
Language : English
Service kind : Complete Main
Default : Yes
Forced : No

Files:

Vikings.S06E11.1080p.WEB.H264-GLHF[rarbg]
  • RARBG.txt (0.0 KB)
  • RARBG_DO_NOT_MIRROR.exe (0.1 KB)
  • vikings.s06e11.1080p.web.h264-glhf.mkv (2.5 GB)
  • vikings.s06e11.1080p.web.h264-glhf.nfo (0.0 KB)
  • vikings.s06e11.1080p.web.h264-glhf_tvm.jpg (381.4 KB)

Comments

Code:

  • http://tracker.trackerfix.com:80/announce
  • udp://9.rarbg.me:2950/announce
  • udp://9.rarbg.to:2940/announce