Mainkar Chipay (2020) ZEE5 Bengali 720p HEVC WEBRip x265 AAC 150mb [MechBoyHD]

  • CategoryMovies
  • TypeHEVC/x265
  • LanguageBengali/Bangla
  • Total size147.1 MB
  • Uploaded ByStathamIN
  • Downloads291
  • Last checkedJan. 05th '21
  • Date uploadedJan. 01st '21
  • Seeders 16
  • Leechers2

Mainkar Chipay

Thriller

Three men are caught in a situation inside a car. One of them is a rich man who regularly sources cocaine from a fixed peddler at a fixed spot, another is a drug dealer who comes late and the third one is a cop. What happens next?

Infohash : D471E654984C6FE17B86E1D45EA9C22E59064B77



Mainkar Chipay (2020) ZEE5 Bengali 720p HEVC WEBRip x265 AAC 150mb [MechBoyHD]





..:: MEDIA INFO ::..


Format : Matroska
Format version : Version 4 / Version 2
File size : 147 MiB
Duration : 50 min 1 s
Encoded date : UTC 2021-01-01 05:19:04
Writing application : mkvmerge v42.0.0 ('Overtime') 64-bit
Writing library : libebml v1.3.10 + libmatroska v1.5.2

Video
ID : 1
Format : HEVC
Format/Info : High Efficiency Video Coding
Format profile : [email protected]@Main
Codec ID : V_MPEGH/ISO/HEVC
Duration : 50 min 1 s
Width : 1 280 pixels
Height : 720 pixels
Display aspect ratio : 16:9
Frame rate mode : Constant
Frame rate : 25.000 FPS
Color space : YUV
Chroma subsampling : 4:2:0
Bit depth : 8 bits
Bits/(Pixel*Frame) : 0.014
Stream size : 112 MiB (76%)
Language : Bengali
Default : Yes
Forced : No
Color range : Limited

Audio
ID : 2
Format : AAC
Format/Info : Advanced Audio Codec
Format profile : LC
Codec ID : A_AAC
Duration : 50 min 1 s
Bit rate : 96.0 kb/s
Channel(s) : 2 channels
Channel positions : Front: L R
Sampling rate : 48.0 kHz
Frame rate : 46.875 FPS (1024 SPF)
Compression mode : Lossy
Delay relative to video : -40 ms
Stream size : 34.2 MiB (23%)
Language : Bengali
Default : Yes
Forced : No



..:: SCREENSHOTS ::..



Files:

Mainkar Chipay (2020) ZEE5 Bengali 720p HEVC WEBRip x265 AAC 150mb [MechBoyHD]
  • For More ViSiT Us.txt (0.2 KB)
  • Mainkar Chipay (2020) ZEE5 Bengali 720p HEVC WEBRip x265 AAC 150mb [MechBoyHD].mkv (147.1 MB)

Code:

  • udp://tracker.opentrackr.org:1337/announce
  • udp://9.rarbg.to:2710/announce
  • udp://9.rarbg.me:2710/announce
  • udp://tracker.leechers-paradise.org:6969/announce
  • udp://tracker.cyberia.is:6969/announce
  • udp://exodus.desync.com:6969/announce
  • udp://explodie.org:6969/announce
  • udp://tracker3.itzmx.com:6961/announce
  • http://tracker1.itzmx.com:8080/announce
  • udp://p4p.arenabg.ch:1337/announce
  • http://p4p.arenabg.com:1337/announce
  • udp://tracker.tiny-vps.com:6969/announce
  • udp://open.stealth.si:80/announce
  • udp://tracker.zerobytes.xyz:1337/announce
  • udp://tracker.ds.is:6969/announce
  • udp://open.demonii.si:1337/announce
  • udp://tracker.torrent.eu.org:451/announce
  • udp://retracker.lanta-net.ru:2710/announce
  • http://open.acgnxtracker.com:80/announce
  • udp://ipv4.tracker.harry.lu:80/announce