Thor 2011 Bonus BR EAC3 VFF VFQ ENG 1080p x265 10Bits T0M (Thor 1...

  • Category Movies
  • Type HEVC/x265
  • Language French
  • Total size 4.7 GB
  • Uploaded By T0M4
  • Downloads 107
  • Last checked 5 days ago
  • Date uploaded 2 weeks ago
  • Seeders 11
  • Leechers 2

Thor

ActionAdventureFantasy

Against his father Odin's will, The Mighty Thor -a powerful but arrogant warrior god -recklessly reignites an ancient war. Thor is cast down to Earth and forced to live among humans as punishment. Once here, Thor learns what it takes to be a true hero when the most dangerous villain of his world sends the darkest forces of Asgard to invade Earth.

Infohash : 038977C0734533F032ABB00D941E7336615A066A


______________________________________________________________________________________________________________
Thor 2011
Bluray · 1080p x265 10bits · DD+ 5.1 VFF VFQ ENG
More Bonus
¯¯¯¯¯¯¯¯¯¯¯¯¯¯¯¯¯¯¯¯¯¯¯¯¯¯¯¯¯¯¯¯¯¯¯¯¯¯¯¯¯¯¯¯¯¯¯¯¯¯¯¯¯¯¯¯¯¯¯¯¯¯¯¯¯¯¯¯¯¯¯¯¯¯¯¯¯¯¯¯



Year : 2011
Country : United States
Original, French and English Title : Thor
Director : Kenneth Branagh
Music from : Patrick Doyle, Christopher Young
Acteurs : Chris Hemsworth, Natalie Portman, Tom Hiddleston, Anthony Hopkins, Stellan Skarsgård, Kat Dennings, Clark Gregg, Colm Feore
Ray Stevenson, Rene Russo, Idris Elba, Jaimie Alexander, Tadanobu Asano, Joshua Dallas
Genre : Super hero, Action, Fantasy, Adventure
Certificate : Scenes, comments, or images may offend viewers' sensibilities
Budget : 150 000 000 $ · Recipe : 515 577 759 $ · ratio : 344 %
Link : Allociné 3,5 /5 · IMDB 7,0 /10 · TMDB 67 % · SensCritique 5,2 /10 · Wiki · Bande Annonce

French Plot
Au royaume d’Asgard , Thor est un guerrier aussi puissant qu’arrogant dont les actes téméraires déclenchent une guerre ancestrale. Banni et envoyé sur Terre, par son père Odin , il est condamné à vivre parmi les humains. Mais lorsque les forces du mal de son royaume s’apprêtent à se déchaîner sur la Terre, Thor va apprendre à se comporter en véritable héros
Adaptations des : Marvel Comics 1939

Bonus
11 Deleted Scenes - 24 mn - 192,0 Mib - 1920x1080 HEVC 10Bits - VOSTFR - 152b504e
Bluray Looping - 40 s - 16,50 Mib - 1920x1080 HEVC 10Bits - MUET - 879f5330
Bluray Opening - 58 s - 18,60 Mib - 1920x1080 HEVC 10Bits - MUET - 3eb080ff
Featurettes - A Conversation - 2 mn - 32,40 Mib - 1920x1080 HEVC 10Bits - VOSTFR - f972148c
Featurettes - Assembling the Troupe - 4 mn - 46,40 Mib - 1920x1080 HEVC 10Bits - VOSTFR - f9f8fbc4
Featurettes - Creating Laufey - 5 mn - 55,60 Mib - 1920x1080 HEVC 10Bits - VOSTFR - 08967cd2
Featurettes - From Asgard to Earth - 19 mn - 225,0 Mib - 1920x1080 HEVC 10Bits - VOSTFR - 46c06ef3
Featurettes - Hammer Time - 6 mn - 68,20 Mib - 1920x1080 HEVC 10Bits - VOSTFR - f205df76
Featurettes - Music of the Gods - 2 mn - 19,00 Mib - 1920x1080 HEVC 10Bits - VOSTFR - e20dc5d8
Featurettes - Our Fearless Leader - 3 mn - 31,00 Mib - 1920x1080 HEVC 10Bits - VOSTFR - a4a8c0b2
Marvel One-Shot - The Consultant - 3 mn - 23,80 Mib - 1920x1080 HEVC 10Bits - VOSTFR - 9bdabdc8
Road to the Avengers - 2 mn - 35,60 Mib - 1920x1080 HEVC 10Bits - VOSTFR - cc2f18a7
Teaser - Marvel's Avengers Assemble - 1 mn - 17,70 Mib - 1920x1080 HEVC 10Bits - VO - 05cbdef4
Teaser - Theatrical Trailer - 2 mn - 26,80 Mib - 1920x1080 HEVC 10Bits - VO - 5dd6c65e
Teaser - Trailer - 2 mn - 28,90 Mib - 1920x1080 HEVC 10Bits - VO - 8e6b4fa8
15 bonus, total 837,5 Mib 1 h23 mn

Saga
2003 : Hulk + Bonus
Phase I
2008 : Iron Man 1, The Incredible Hulk
2010 : Iron Man 2
2011 : Thor 1 + Bonus, Captain America 1 First Avenger + Bonus
2012 : Avengers 1
Phase II
2013 : Iron Man 3, Thor 2 The Dark World + Bonus
2014 : Captain America 2 The Winter Soldier + Bonus, Guardians of the Galaxy + Bonus
2015 : Avengers 2 Age of Ultron + Bonus, Ant-Man + Bonus
Phase III
2016 : Captain America 3 Civil War + Bonus, Doctor Strange
2017 : Guardians of the Galaxy 2 + Bonus, Spider-Man 1 Homecoming + Bonus, Thor 3 Ragnarok + Bonus
2018 : Black Panther 1 + Bonus, Avengers 3 Infinity War + Bonus, Ant-Man 2 and the Wasp + Bonus
2019 : Captain Marvel 1 + Bonus, Avengers 4 Endgame + Bonus, Spider-Man 2 Far From Home


If you enjoy and wish to support, please stay in seeding

Technical Details
¯¯¯¯¯¯¯¯¯¯¯¯¯¯¯¯¯¯¯¯¯¯¯¯¯¯¯¯¯¯¯¯¯¯¯¯¯¯¯¯¯¯¯¯¯¯¯¯¯¯¯¯¯¯¯¯¯¯¯¯¯¯¯¯¯¯¯¯¯¯¯¯¯¯¯¯¯¯¯¯¯¯¯¯¯¯¯¯¯¯¯¯¯¯¯¯¯¯¯¯
Media
Matroska 3,85 Gio 1 h54 mn 4800 Kbps, Total 4,67 Gio 3 h17 mn
Video
HEVC/H265 1920 x816 @23.976 [email protected]@Main 10 bits 3300 Kbps VerySlow qp23,97
Audio
True French 5.1 EAC3 448 Kbps 48KHz 16bits
Quebec French 5.1 EAC3 448 Kbps 48KHz 16bits
English (OV) 5.1 EAC3 448 Kbps 48KHz 16bits
English Commentary by Kenneth Branagh 2.0 EAC3 128 Kbps 48KHz 16bits
Subtitles
True French forced SRT
True French full SRT
True French forced PGS
True French full PGS
English full PGS
English full SDH PGS
Chapters
International
Screenshot

Origin
Bluray : Video AVC 1080p 27034 Kbps, VFF 5.1 AC3 640 Kbps, VFQ 5.1 AC3 640 Kbps, Anglais 7.1 DTS-HDMA 4928 Kbps

NFO
¯¯¯¯¯¯¯¯¯¯¯¯¯¯¯¯¯¯¯¯¯¯¯¯¯¯¯¯¯¯¯¯¯¯¯¯¯¯¯¯¯¯¯¯¯¯¯¯¯¯¯¯¯¯¯¯¯¯¯¯¯¯¯¯¯¯¯¯¯¯¯¯¯¯¯¯¯¯¯¯¯¯¯¯¯¯¯¯¯¯¯¯¯¯¯¯¯¯¯¯


General
Format : Matroska
Format version : Version 4 / Version 2
File size : 3.85 GiB
Duration : 1 h 54 min
Overall bit rate : 4 800 kb/s
Movie name : Thor 2011 de Kenneth Branagh avec Chris Hemsworth, Natalie Portman, Tom Hiddleston, Anthony Hopkins, Stellan Skarsgård, Kat Dennings, Clark Gregg, Colm Feore, Ray Stevenson, Rene Russo, Idris Elba, Jaimie Alexander, Tadanobu Asano, Joshua Dallas. Heurter la sensibilité (allocine=129477,imdb=tt0800369) T0M
Encoded date : UTC 2018-08-22 13:53:01
Writing application : mkvmerge v8.0.0 ('Til The Day That I Die') 64bit
Writing library : libebml v1.3.1 + libmatroska v1.4.2
Cover : Yes
Attachments : Cover.jpg

Video
ID : 1
Format : HEVC
Format/Info : High Efficiency Video Coding
Format profile : Main [email protected]@Main
Codec ID : V_MPEGH/ISO/HEVC
Duration : 1 h 54 min
Bit rate : 3 300 kb/s
Width : 1 920 pixels
Height : 816 pixels
Display aspect ratio : 2.35:1
Frame rate mode : Constant
Frame rate : 23.976 (24000/1001) FPS
Color space : YUV
Chroma subsampling : 4:2:0
Bit depth : 10 bits
Bits/(Pixel*Frame) : 0.088
Stream size : 2.65 GiB (69%)
Title : Video HEVC 1920x816 @23.976 x265 [email protected]@Main 10bits 3300kbps 2pass veryslow 2178mn
Writing library : x265 2.6:[Windows][GCC 7.3.0][64 bit] 10bit
Encoding settings : cpuid=1173503 / frame-threads=3 / numa-pools=8 / wpp / no-pmode / no-pme / no-psnr / no-ssim / log-level=2 / input-csp=1 / input-res=1920x816 / interlace=0 / total-frames=0 / level-idc=0 / high-tier=1 / uhd-bd=0 / ref=5 / no-allow-non-conformance / no-repeat-headers / annexb / no-aud / no-hrd / info / hash=0 / no-temporal-layers / open-gop / min-keyint=24 / keyint=240 / bframes=8 / b-adapt=2 / b-pyramid / bframe-bias=0 / rc-lookahead=40 / lookahead-slices=0 / scenecut=40 / no-intra-refresh / ctu=64 / min-cu-size=8 / rect / amp / max-tu-size=32 / tu-inter-depth=3 / tu-intra-depth=3 / limit-tu=4 / rdoq-level=2 / dynamic-rd=0.00 / no-ssim-rd / signhide / no-tskip / nr-intra=0 / nr-inter=0 / no-constrained-intra / strong-intra-smoothing / max-merge=4 / limit-refs=1 / limit-modes / me=3 / subme=4 / merange=57 / temporal-mvp / weightp / weightb / no-analyze-src-pics / deblock=0:0 / sao / no-sao-non-deblock / rd=6 / no-early-skip / rskip / no-fast-intra / no-tskip-fast / no-cu-lossless / b-intra / no-splitrd-skip / rdpenalty=0 / psy-rd=2.00 / psy-rdoq=1.00 / no-rd-refine / analysis-reuse-mode=0 / no-lossless / cbqpoffs=0 / crqpoffs=0 / rc=abr / bitrate=3300 / qcomp=0.60 / qpstep=4 / stats-write=0 / stats-Read=2 / cplxblur=20.0 / qblur=0.5 / ipratio=1.40 / pbratio=1.30 / aq-mode=1 / aq-strength=1.00 / cutree / zone-count=0 / no-strict-cbr / qg-size=32 / no-rc-grain / qpmax=69 / qpmin=0 / no-const-vbv / sar=1 / overscan=0 / videoformat=5 / range=0 / colorprim=1 / transfer=1 / colormatrix=1 / chromaloc=0 / display-window=0 / max-cll=0,0 / min-luma=0 / max-luma=1023 / log2-max-poc-lsb=8 / vui-timing-info / vui-hrd-info / slices=1 / no-opt-qp-pps / no-opt-ref-list-length-pps / no-multi-pass-opt-rps / scenecut-bias=0.05 / no-opt-cu-delta-qp / no-aq-motion / no-hdr / no-hdr-opt / no-dhdr10-opt / analysis-reuse-level=5 / scale-factor=0 / refine-intra=0 / refine-inter=0 / refine-mv=0 / no-limit-sao / ctu-info=0 / no-lowpass-dct / refine-mv-type=0 / copy-pic=1
Default : Yes
Forced : No
Color range : Limited
Color primaries : BT.709
Transfer characteristics : BT.709
Matrix coefficients : BT.709

Audio #1
ID : 2
Format : E-AC-3
Format/Info : Enhanced Audio Coding 3
Codec ID : A_EAC3
Duration : 1 h 54 min
Bit rate mode : Constant
Bit rate : 448 kb/s
Channel(s) : 6 channels
Channel positions : Front: L C R, Side: L R, LFE
Sampling rate : 48.0 kHz
Frame rate : 187.500 FPS (256 SPF)
Compression mode : Lossy
Delay relative to video : 5 ms
Stream size : 368 MiB (9%)
Title : Français 5.1 EAC3 448kbps 48khz 16bits
Language : French
Service kind : Complete Main
Default : Yes
Forced : No

Audio #2
ID : 3
Format : E-AC-3
Format/Info : Enhanced Audio Coding 3
Codec ID : A_EAC3
Duration : 1 h 54 min
Bit rate mode : Constant
Bit rate : 448 kb/s
Channel(s) : 6 channels
Channel positions : Front: L C R, Side: L R, LFE
Sampling rate : 48.0 kHz
Frame rate : 187.500 FPS (256 SPF)
Compression mode : Lossy
Delay relative to video : 5 ms
Stream size : 368 MiB (9%)
Title : Québécois 5.1 EAC3 448kbps 48khz 16bits
Language : French
Service kind : Complete Main
Default : No
Forced : No

Audio #3
ID : 4
Format : E-AC-3
Format/Info : Enhanced Audio Coding 3
Codec ID : A_EAC3
Duration : 1 h 54 min
Bit rate mode : Constant
Bit rate : 448 kb/s
Channel(s) : 6 channels
Channel positions : Front: L C R, Side: L R, LFE
Sampling rate : 48.0 kHz
Frame rate : 187.500 FPS (256 SPF)
Compression mode : Lossy
Delay relative to video : 5 ms
Stream size : 368 MiB (9%)
Title : English 5.1 EAC3 448kbps 48khz 16bits
Language : English
Service kind : Complete Main
Default : No
Forced : No

Audio #4
ID : 5
Format : E-AC-3
Format/Info : Enhanced Audio Coding 3
Codec ID : A_EAC3
Duration : 1 h 54 min
Bit rate mode : Constant
Bit rate : 128 kb/s
Channel(s) : 2 channels
Channel positions : Front: L R
Sampling rate : 48.0 kHz
Frame rate : 187.500 FPS (256 SPF)
Compression mode : Lossy
Delay relative to video : 5 ms
Stream size : 105 MiB (3%)
Title : English comment by Kenneth Branagh 2.0 EAC3 128kbps 48khz 16bits
Language : English
Service kind : Complete Main
Default : No
Forced : No

Text #1
ID : 6
Format : UTF-8
Codec ID : S_TEXT/UTF8
Codec ID/Info : UTF-8 Plain Text
Duration : 1 h 54 min
Bit rate : 0 b/s
Count of elements : 14
Stream size : 666 Bytes (0%)
Title : Français forcé (Passages)
Language : French
Default : Yes
Forced : Yes

Text #2
ID : 7
Format : UTF-8
Codec ID : S_TEXT/UTF8
Codec ID/Info : UTF-8 Plain Text
Duration : 1 h 54 min
Bit rate : 38 b/s
Count of elements : 1110
Stream size : 32.3 KiB (0%)
Title : Français complet (Tous le film)
Language : French
Default : No
Forced : No

Text #3
ID : 8
Format : PGS
Muxing mode : zlib
Codec ID : S_HDMV/PGS
Codec ID/Info : Picture based subtitle format used on BDs/HD-DVDs
Duration : 1 h 52 min
Bit rate : 40 b/s
Count of elements : 10
Stream size : 33.5 KiB (0%)
Title : Français forcé (Passages) PGS
Language : French
Default : No
Forced : No

Text #4
ID : 9
Format : PGS
Muxing mode : zlib
Codec ID : S_HDMV/PGS
Codec ID/Info : Picture based subtitle format used on BDs/HD-DVDs
Duration : 1 h 53 min
Bit rate : 6 910 b/s
Count of elements : 2213
Stream size : 5.62 MiB (0%)
Title : Français complet (Tous le film) PGS
Language : French
Default : No
Forced : No

Text #5
ID : 10
Format : PGS
Muxing mode : zlib
Codec ID : S_HDMV/PGS
Codec ID/Info : Picture based subtitle format used on BDs/HD-DVDs
Duration : 1 h 53 min
Bit rate : 7 541 b/s
Count of elements : 2192
Stream size : 6.11 MiB (0%)
Title : English full (All the movie) PGS
Language : English
Default : No
Forced : No

Text #6
ID : 11
Format : PGS
Muxing mode : zlib
Codec ID : S_HDMV/PGS
Codec ID/Info : Picture based subtitle format used on BDs/HD-DVDs
Duration : 1 h 53 min
Bit rate : 8 231 b/s
Count of elements : 2382
Stream size : 6.70 MiB (0%)
Title : English full SDH PGS
Language : English
Default : No
Forced : No

Menu
00:00:00.000 : :01 - 00:00:00
00:10:38.137 : :02 - 00:10:38
00:17:33.135 : :03 - 00:17:33
00:26:02.602 : :04 - 00:26:02
00:32:28.196 : :05 - 00:32:28
00:37:28.412 : :06 - 00:37:28
00:42:14.198 : :07 - 00:42:14
00:52:10.377 : :08 - 00:52:10
01:01:24.972 : :09 - 01:01:24
01:08:45.538 : :10 - 01:08:45
01:15:39.159 : :11 - 01:15:39
01:21:19.249 : :12 - 01:21:19
01:30:35.346 : :13 - 01:30:35
01:40:58.177 : :14 - 01:40:58
01:45:13.724 : :15 - 01:45:13
01:47:05.130 : :16 - 01:47:05
01:53:06.196 : :17 - 01:53:06

Files:

Thor 1 2011 Bonus BR EAC3 VFF VFQ ENG 1080p x265 10Bits T0M
  • Thor 1 2011 Bonus - 11 Deleted Scenes VOSTFR.mkv (192.5 MB)
  • Thor 1 2011 Bonus - Bluray Looping MUSIQUE.mkv (16.5 MB)
  • Thor 1 2011 Bonus - Bluray Opening MUSIQUE.mkv (18.6 MB)
  • Thor 1 2011 Bonus - Featurettes - A Conversation VOSTFR.mkv (32.4 MB)
  • Thor 1 2011 Bonus - Featurettes - Assembling the Troupe VOSTFR.mkv (46.4 MB)
  • Thor 1 2011 Bonus - Featurettes - Creating Laufey VOSTFR.mkv (55.6 MB)
  • Thor 1 2011 Bonus - Featurettes - From Asgard to Earth VOSTFR.mkv (225.4 MB)
  • Thor 1 2011 Bonus - Featurettes - Hammer Time VOSTFR.mkv (68.2 MB)
  • Thor 1 2011 Bonus - Featurettes - Music of the Gods VOSTFR.mkv (19.0 MB)
  • Thor 1 2011 Bonus - Featurettes - Our Fearless Leader VOSTFR.mkv (31.0 MB)
  • Thor 1 2011 Bonus - Marvel One-Shot - The Consultant VOSTFR.mkv (23.8 MB)
  • Thor 1 2011 Bonus - Road to the Avengers VOSTFR.mkv (35.6 MB)
  • Thor 1 2011 Bonus - Teaser - Marvel's Avengers Assemble VO.mkv (17.7 MB)
  • Thor 1 2011 Bonus - Teaser - Theatrical Trailer VO.mkv (26.8 MB)
  • Thor 1 2011 Bonus - Teaser - Trailer VO.mkv (28.9 MB)
  • Thor 1 2011 BR EAC3 VFF VFQ ENG 1080p x265 10Bits T0M.mkv (3.9 GB)
  • Thor 1 2011.nfo (118.3 KB)
  • Thor 1 2011.sfv (1.1 KB)

There are currently no comments. Feel free to leave one :)

Code:

  • udp://tracker.opentrackr.org:1337/announce
  • http://tracker3.itzmx.com:8080/announce
  • udp://tracker.coppersurfer.tk:6969/announce
  • udp://tracker.cyberia.is:6969/announce
  • udp://tracker.tiny-vps.com:6969/announce
  • udp://opentor.org:2710
  • udp://tracker.ds.is:6969/announce
  • udp://ipv4.tracker.harry.lu:80/announce
  • udp://tracker.leechers-paradise.org:6969
  • udp://tracker.moeking.me:6969/announce
  • udp://tracker.uw0.xyz:6969/announce
  • http://explodie.org:6969/announce
  • udp://retracker.lanta-net.ru:2710/announce
  • http://jsb.by:8000/announce
  • http://retracker.sevstar.net:2710/announce