Violet Evergarden Gaiden Eien to Jidou Shuki Ningyou (The Movie) ...

  • Category Movies
  • Type HEVC/x265
  • Language Japanese
  • Total size 3.8 GB
  • Uploaded By BedBug
  • Downloads 76
  • Last checked 3 hours ago
  • Date uploaded 1 day ago
  • Seeders 46
  • Leechers 2

Infohash : B6D6E9FADF5F3D2F4845627690DF58ED5C9683F7



Quote:

Description:
Title: Violet Evergarden Gaiden Eien to Jidou Shuki Ningyou (The Movie)
*Original Source: Snow-Raws
*Video Format: x265 HEVC 10bit mkv
*Audio Codec: Japanese 5.1 (Surround FLAC)
*Duration: 1h 30 minutes
*Subtitle Source: D0ugyB0y
*Resolution/Quality: 1920x1080 or 1080p HD
*Genre: Slice of Life, Drama, Fantasy
*Age Rating: PG-13



Code:

General
Unique ID                                : 255083170967135133928654517732783026323 (0xBFE73B527E13866068BF4D913459F093)
Complete name                            : C:\Users\Mysteria\Downloads\[Mysteria] Violet Evergarden Gaiden Eien to Jidou Shuki Ningyou (The Movie).mkv
Format                                   : Matroska
Format version                           : Version 4
File size                                : 3.84 GiB
Duration                                 : 1 h 30 min
Overall bit rate mode                    : Variable
Overall bit rate                         : 6 045 kb/s
Movie name                               : [Mysteria] Violet Evergarden Gaiden Eien to Jidou Shuki Ningyou (The Movie)
Encoded date                             : UTC 2020-08-03 18:48:56
Writing application                      : mkvmerge v49.0.0 ('Sick Of Losing Soulmates') 64-bit
Writing library                          : libebml v1.4.0 + libmatroska v1.6.1
Attachments                              : BadScript-Regular.ttf / Dosis-SemiBold.ttf / Gabriola.ttf / GandhiSans-Bold.otf / GandhiSans-BoldItalic.otf / BadScript-Regular.ttf / Dosis-SemiBold.ttf / Gabriola.ttf / GandhiSans-Bold.otf / GandhiSans-BoldItalic.otf

Video
ID                                       : 1
Format                                   : HEVC
Format/Info                              : High Efficiency Video Coding
Format profile                           : Main [email protected]@Main
Codec ID                                 : V_MPEGH/ISO/HEVC
Duration                                 : 1 h 30 min
Bit rate                                 : 3 064 kb/s
Width                                    : 1 920 pixels
Height                                   : 1 080 pixels
Display aspect ratio                     : 16:9
Frame rate mode                          : Constant
Frame rate                               : 23.976 (24000/1001) FPS
Color space                              : YUV
Chroma subsampling                       : 4:2:0
Bit depth                                : 10 bits
Bits/(Pixel*Frame)                       : 0.062
Stream size                              : 1.94 GiB (51%)
Title                                    : [Snow-Raws] ヴァイオレット・エヴァーガーデン 外伝 - 永遠と自動手記人形 - (BD 1920x1080 HEVC-YUV420P10 FLACx4).mkv
Writing library                          : x265 3.1+5-9c5c9cef2a86:[Windows][GCC 9.1.0][64 bit] 10bit
Encoding settings                        : cpuid=1111039 / frame-threads=3 / numa-pools=8 / wpp / no-pmode / no-pme / no-psnr / no-ssim / log-level=2 / input-csp=1 / input-res=1920x1080 / interlace=0 / total-frames=0 / level-idc=0 / high-tier=1 / uhd-bd=0 / ref=4 / no-allow-non-conformance / no-repeat-headers / annexb / no-aud / no-hrd / info / hash=0 / no-temporal-layers / no-open-gop / min-keyint=1 / keyint=324 / gop-lookahead=0 / bframes=8 / b-adapt=2 / b-pyramid / bframe-bias=0 / rc-lookahead=80 / lookahead-slices=0 / scenecut=40 / radl=0 / no-splice / no-intra-refresh / ctu=32 / min-cu-size=8 / no-rect / no-amp / max-tu-size=32 / tu-inter-depth=2 / tu-intra-depth=2 / limit-tu=2 / rdoq-level=2 / dynamic-rd=0.00 / no-ssim-rd / signhide / no-tskip / nr-intra=0 / nr-inter=0 / no-constrained-intra / no-strong-intra-smoothing / max-merge=3 / limit-refs=2 / no-limit-modes / me=3 / subme=4 / merange=57 / temporal-mvp / weightp / no-weightb / no-analyze-src-pics / deblock=-1:-1 / no-sao / no-sao-non-deblock / rd=6 / early-skip / rskip / no-fast-intra / no-tskip-fast / no-cu-lossless / b-intra / no-splitrd-skip / rdpenalty=0 / psy-rd=2.00 / psy-rdoq=0.90 / no-rd-refine / no-lossless / cbqpoffs=-1 / crqpoffs=-1 / rc=crf / crf=15.7 / qcomp=0.65 / qpstep=4 / stats-write=0 / stats-read=0 / ipratio=1.40 / pbratio=1.30 / aq-mode=3 / aq-strength=0.90 / cutree / zone-count=0 / no-strict-cbr / qg-size=32 / no-rc-grain / qpmax=69 / qpmin=0 / no-const-vbv / sar=0 / overscan=0 / videoformat=5 / range=0 / colorprim=2 / transfer=2 / colormatrix=1 / chromaloc=0 / display-window=0cll=0,0 / min-luma=0 / max-luma=1023 / log2-max-poc-lsb=8 / vui-timing-info / vui-hrd-info / slices=1 / opt-qp-pps / opt-ref-list-length-pps / no-multi-pass-opt-rps / scenecut-bias=0.05 / no-opt-cu-delta-qp / no-aq-motion / no-hdr / no-hdr-opt / no-dhdr10-opt / no-idr-recovery-sei / analysis-reuse-level=5 / scale-factor=0 / refine-intra=0 / refine-inter=0 / refine-mv=0 / refine-ctu-distortion=0 / no-limit-sao / ctu-info=0 / no-lowpass-dct / refine-analysis-type=0 / copy-pic=1 / max-ausize-factor=1.0 / no-dynamic-refine / no-single-sei / no-hevc-aq / no-svt / no-field / qp-adaptation-range=1.00
Language                                 : Japanese
Default                                  : Yes
Forced                                   : No
Color range                              : Limited
Matrix coefficients                      : BT.709

Audio
ID                                       : 3
Format                                   : FLAC
Format/Info                              : Free Lossless Audio Codec
Codec ID                                 : A_FLAC
Duration                                 : 1 h 30 min
Bit rate mode                            : Variable
Bit rate                                 : 2 985 kb/s
Channel(s)                               : 6 channels
Channel layout                           : L R C LFE Ls Rs
Sampling rate                            : 48.0 kHz
Frame rate                               : 11.719 FPS (4096 SPF)
Bit depth                                : 24 bits
Compression mode                         : Lossless
Stream size                              : 1.89 GiB (49%)
Title                                    : Japanese 5.1 FLAC
Writing library                          : CUETools FLACCL 2.1.6
Language                                 : Japanese
Default                                  : Yes
Forced                                   : No

Text
ID                                       : 2
Format                                   : ASS
Codec ID                                 : S_TEXT/ASS
Codec ID/Info                            : Advanced Sub Station Alpha
Duration                                 : 1 h 28 min
Bit rate                                 : 70 b/s
Count of elements                        : 900
Compression mode                         : Lossless
Stream size                              : 45.6 KiB (0%)
Title                                    : Full Subtitles
Language                                 : English
Default                                  : Yes
Forced                                   : No



Files:

  • [Mysteria] Violet Evergarden Gaiden Eien to Jidou Shuki Ningyou (The Movie).mkv (3.8 GB)

There are currently no comments. Feel free to leave one :)

Code:

  • http://nyaa.tracker.wf:7777/announce
  • udp://open.stealth.si:80/announce
  • udp://tracker.opentrackr.org:1337/announce
  • udp://tracker.coppersurfer.tk:6969/announce
  • udp://exodus.desync.com:6969/announce