Steins;Gate + Steins;Gate 0 + Special + Movie [BD 1080p HEVC 10-b...

  • Category Anime
  • Type Subbed
  • Language Japanese
  • Total size 9.3 GB
  • Uploaded By BedBug
  • Downloads 113
  • Last checked 5 hours ago
  • Date uploaded 6 days ago
  • Seeders 42
  • Leechers 17

Infohash : 9C3A4BF2A4D6F36E6C222E293391D5E26292C831

Quote:

SOURCE
Steins;Gate : Video : Beatrice-Raws
Subs : deanzel (Commie)
Movie : Video : Beatrice-Raws
Subs : Kametsu
.

23 β : Video : Beatrice-Raws
Subs : UCCUSS-WhyNot
Steins;Gate 0 : Video : Moozzi2
Subs : LostYears
Special : Subs : GhostYears



Quote:


All signs in steins gate 0 are 1-2 frames too early or too late, dunno if you screwed something up during muxing or if LostYears’ release is just scuffed and one sign in episode 1 is screwed up, either way I made a patch here



Code:

General
Unique ID : 203098338541433201435248462254139450045 (0x98CB51330D04E7A48568542BE19F22BD)
Complete name : Steins;Gate 1x01.mkv
Format : Matroska
Format version : Version 4
File size : 272 MiB
Duration : 23 min 56 s
Overall bit rate : 1 586 kb/s
Encoded date : UTC 2019-07-30 11:43:09
Writing application : mkvmerge v12.0.0 ('Trust / Lust') 64bit
Writing library : libebml v1.3.4 + libmatroska v1.4.5
Attachments : Adobe Garamond LT Bold.ttf / Adobe Garamond LT Regular.ttf / Adobe Garamond LT Semibold.ttf / AlteHaasGroteskBold.ttf / A-OTF-FutoMinA101Pro-Bold_1.otf / arial.ttf / arialbd.ttf / arialbi.ttf / ariali.ttf / ARLRDBD.ttf / ArnoPro-Bold.otf / ArnoPro-Italic.otf / ArnoPro-Regular.otf / ARNORG_.ttf / Candarab.ttf / Candaraz.ttf / DFGKanTeiRyu-XB.ttf / estre.ttf / FJ-KanteiryuEdomoji-Lite.ttf / HATTEN.ttf / leadcoat.ttf / LEHN096.ttf / nu_century_gothic.ttf / NuevaStd-Cond.otf / NuevaStd-CondItalic.otf / Nunito-Bold.ttf / Nunito-Regular.ttf / Old_Newspaper_Font.ttf / Unisketch-light_limited.ttf

Video
ID : 1
Format : HEVC
Format/Info : High Efficiency Video Coding
Format profile : Main [email protected]@Main
Codec ID : V_MPEGH/ISO/HEVC
Duration : 23 min 56 s
Bit rate : 1 372 kb/s
Width : 1 920 pixels
Height : 1 080 pixels
Display aspect ratio : 16:9
Frame rate mode : Constant
Frame rate : 23.976 (24000/1001) FPS
Color space : YUV
Chroma subsampling : 4:2:0
Bit depth : 10 bits
Bits/(Pixel*Frame) : 0.028
Stream size : 235 MiB (87%)
Writing library : x265 2.4+27-e9e574bbed93:[Windows][GCC 6.3.0][64 bit] 10bit
Encoding settings : cpuid=1173503 / frame-threads=2 / numa-pools=4 / wpp / no-pmode / no-pme / no-psnr / no-ssim / log-level=2 / input-csp=1 / input-res=1920x1080 / interlace=0 / total-frames=34452 / level-idc=51 / high-tier=0 / uhd-bd=0 / ref=2 / no-allow-non-conformance / no-repeat-headers / annexb / no-aud / no-hrd / info / hash=1 / no-temporal-layers / open-gop / min-keyint=23 / keyint=250 / bframes=4 / b-adapt=2 / b-pyramid / bframe-bias=0 / rc-lookahead=15 / lookahead-slices=0 / scenecut=40 / no-intra-refresh / ctu=32 / min-cu-size=8 / no-rect / no-amp / max-tu-size=32 / tu-inter-depth=1 / tu-intra-depth=1 / limit-tu=0 / rdoq-level=0 / dynamic-rd=0.00 / no-ssim-rd / signhide / no-tskip / nr-intra=0 / nr-inter=0 / no-constrained-intra / strong-intra-smoothing / max-merge=2 / limit-refs=0 / no-limit-modes / me=3 / subme=2 / merange=57 / temporal-mvp / weightp / no-weightb / no-analyze-src-pics / deblock=0:0 / sao / no-sao-non-deblock / rd=2 / early-skip / no-rskip / fast-intra / no-tskip-fast / no-cu-lossless / no-b-intra / rdpenalty=0 / psy-rd=0.40 / psy-rdoq=0.00 / no-rd-refine / analysis-mode=0 / no-lossless / cbqpoffs=0 / crqpoffs=0 / rc=crf / crf=24.0 / qcomp=0.70 / qpstep=4 / stats-write=0 / stats-read=0 / vbv-maxrate=40000 / vbv-bufsize=40000 / vbv-init=0.9 / crf-max=0.0 / crf-min=0.0 / ipratio=1.40 / pbratio=1.30 / aq-mode=2 / aq-strength=0.60 / no-cutree / zone-count=0 / no-strict-cbr / qg-size=32 / no-rc-grain / qpmax=69 / qpmin=0 / sar=0 / overscan=0 / videoformat=5 / range=0 / colorprim=1 / transfer=1 / colormatrix=1 / chromaloc=0 / display-window=0 / max-cll=0,0 / min-luma=0 / max-luma=1023 / log2-max-poc-lsb=8 / vui-timing-info / vui-hrd-info / slices=1 / opt-qp-pps / opt-ref-list-length-pps / no-multi-pass-opt-rps / scenecut-bias=0.05 / no-opt-cu-delta-qp / no-aq-motion / no-hdr / no-hdr-opt / no-dhdr10-opt / refine-level=5 / no-limit-sao / ctu-info=0
Default : Yes
Forced : No
Color range : Limited
Color primaries : BT.709
Transfer characteristics : BT.709
Matrix coefficients : BT.709

Audio
ID : 2
Format : AAC LC
Format/Info : Advanced Audio Codec Low Complexity
Codec ID : A_AAC-2
Duration : 23 min 56 s
Bit rate : 120 kb/s
Channel(s) : 2 channels
Channel layout : L R
Sampling rate : 48.0 kHz
Frame rate : 46.875 FPS (1024 SPF)
Compression mode : Lossy
Delay relative to video : 20 ms
Stream size : 20.6 MiB (8%)
Language : Japanese
Default : No
Forced : No

Text
ID : 3
Format : ASS
Codec ID : S_TEXT/ASS
Codec ID/Info : Advanced Sub Station Alpha
Duration : 23 min 32 s
Bit rate : 450 b/s
Count of elements : 959
Compression mode : Lossless
Stream size : 77.7 KiB (0%)
Language : English
Default : Yes
Forced : No

Menu
00:00:00.000 : en:Part A
00:10:34.050 : en:OP
00:12:03.973 : en:Part B
00:22:10.955 : en:ED
00:23:40.919 : en:Next



Files:

[Cerberus] Steins;Gate + Steins;Gate 0 + Special + Movie [BD 1080p HEVC 10-bit AAC] Steins;Gate
  • Steins;Gate Movie Fuka Ryouiki no Déjà vu.mkv (421.6 MB)
  • Steins;Gate 1x01.mkv (271.7 MB)
  • Steins;Gate 1x02.mkv (209.6 MB)
  • Steins;Gate 1x03.mkv (210.2 MB)
  • Steins;Gate 1x04.mkv (178.4 MB)
  • Steins;Gate 1x05.mkv (173.0 MB)
  • Steins;Gate 1x06.mkv (200.1 MB)
  • Steins;Gate 1x07.mkv (198.5 MB)
  • Steins;Gate 1x08.mkv (184.2 MB)
  • Steins;Gate 1x09.mkv (193.9 MB)
  • Steins;Gate 1x10.mkv (204.6 MB)
  • Steins;Gate 1x11.mkv (187.7 MB)
  • Steins;Gate 1x12.mkv (177.3 MB)
  • Steins;Gate 1x13.mkv (199.1 MB)
  • Steins;Gate 1x14.mkv (177.2 MB)
  • Steins;Gate 1x15.mkv (197.6 MB)
  • Steins;Gate 1x16.mkv (183.5 MB)
  • Steins;Gate 1x17.mkv (190.2 MB)
  • Steins;Gate 1x18.mkv (171.3 MB)
  • Steins;Gate 1x19.mkv (171.6 MB)
  • Steins;Gate 1x20.mkv (182.6 MB)
  • Steins;Gate 1x21.mkv (175.5 MB)
  • Steins;Gate 1x22.mkv (195.2 MB)
  • Steins;Gate 1x23.mkv (241.9 MB)
  • Steins;Gate 1x24.mkv (182.9 MB)
  • Steins;Gate 1x25 Special.mkv (131.8 MB)
  • Steins;Gate.sfv (2.4 KB)
  • Steins;Gate 0
    • Steins;Gate 0 0x23 (B).mkv (182.6 MB)
    • Steins;Gate 0 1x01.mkv (188.5 MB)
    • Steins;Gate 0 1x02.mkv (178.1 MB)
    • Steins;Gate 0 1x03.mkv (180.0 MB)
    • Steins;Gate 0 1x04.mkv (164.8 MB)
    • Steins;Gate 0 1x05.mkv (169.5 MB)
    • Steins;Gate 0 1x06.mkv (175.0 MB)
    • Steins;Gate 0 1x07.mkv (166.2 MB)
    • Steins;Gate 0 1x08.mkv (145.6 MB)
    • Steins;Gate 0 1x09.mkv (160.9 MB)
    • Steins;Gate 0 1x10.mkv (170.0 MB)
    • Steins;Gate 0 1x11.mkv (180.4 MB)
    • Steins;Gate 0 1x12.mkv (165.3 MB)
    • Steins;Gate 0 1x13.mkv (169.9 MB)
    • Steins;Gate 0 1x14.mkv (157.7 MB)
    • Steins;Gate 0 1x15.mkv (171.2 MB)
    • Steins;Gate 0 1x16.mkv (164.3 MB)
    • Steins;Gate 0 1x17.mkv (178.6 MB)
    • Steins;Gate 0 1x18.mkv (167.7 MB)
    • Steins;Gate 0 1x19.mkv (172.4 MB)
    • Steins;Gate 0 1x20.mkv (145.3 MB)
    • Steins;Gate 0 1x21.mkv (163.6 MB)
    • Steins;Gate 0 1x22.mkv (181.7 MB)
    • Steins;Gate 0 1x23.mkv (199.6 MB)
    • Steins;Gate 0 1x24 Special.mkv (260.2 MB)

There are currently no comments. Feel free to leave one :)

Code:

  • http://nyaa.tracker.wf:7777/announce
  • udp://open.stealth.si:80/announce
  • udp://tracker.opentrackr.org:1337/announce
  • udp://tracker.coppersurfer.tk:6969/announce
  • udp://exodus.desync.com:6969/announce