Sanam Teri Kasam (2016) 720p HEVC Hindi BRRip 800mb [FreshMoviesH...

  • Category Movies
  • Type HEVC/x265
  • Language Hindi
  • Total size 820.9 MB
  • Uploaded By StathamIN
  • Downloads 1266
  • Last checked 2 hours ago
  • Date uploaded 1 year ago
  • Seeders 6
  • Leechers 3

Sanam Teri Kasam

A musical romantic movie exploring the journey that ensues when the blue blooded boy Inder (Harshvardhan Rane) "Who wanted to love no one" crosses paths with Saru (Mawra Hocane) "Whom no one wanted to love". All their lives they were waiting to meet, but they just didn't know it . A musical tale of love , longing and loss. Sanam Teri Kasam - A Love story sealed with a Curse.

Infohash : 98ED50D7BA517697B38D9E832DE2D6A28FAF9E54


https://FreshMoviesHD.com



Sanam Teri Kasam (2016) 720p HEVC Hindi BRRip 800mb [FreshMoviesHD]





..:: MEDIA INFO ::..


Format                         : Matroska
Format version                 : Version 4 / Version 2
File size                      : 821 MiB
Duration                       : 2 h 33 min
Overall bit rate               : 746 kb/s
Encoded date                   : UTC 2021-01-17 06:23:06
Writing application            : mkvmerge v42.0.0 ('Overtime') 64-bit
Writing library                : libebml v1.3.10 + libmatroska v1.5.2

Video
ID                             : 1
Format                         : HEVC
Format/Info                    : High Efficiency Video Coding
Format profile                 : [email protected]@Main
Codec ID                       : V_MPEGH/ISO/HEVC
Duration                       : 2 h 33 min
Bit rate                       : 680 kb/s
Width                          : 1 280 pixels
Height                         : 544 pixels
Display aspect ratio           : 2.35:1
Frame rate mode                : Constant
Frame rate                     : 24.000 FPS
Color space                    : YUV
Chroma subsampling             : 4:2:0
Bit depth                      : 8 bits
Bits/(Pixel*Frame)             : 0.041
Stream size                    : 748 MiB (91%)
Writing library                : x265 3.4_RC1+3-18610b4f88bc:[Linux][GCC 9.3.0][64 bit] 8bit
Encoding settings              : cpuid=1111039 / frame-threads=4 / wpp / no-pmode / no-pme / no-psnr / no-ssim / log-level=2 / input-csp=1 / input-res=1280x544 / interlace=0 / total-frames=0 / level-idc=0 / high-tier=1 / uhd-bd=0 / ref=1 / no-allow-non-conformance / no-repeat-headers / annexb / no-aud / no-hrd / info / hash=0 / no-temporal-layers / open-gop / min-keyint=24 / keyint=250 / gop-lookahead=0 / bframes=3 / b-adapt=0 / b-pyramid / bframe-bias=0 / rc-lookahead=10 / lookahead-slices=0 / scenecut=40 / hist-scenecut=0 / radl=0 / no-splice / no-intra-refresh / ctu=32 / min-cu-size=8 / no-rect / no-amp / max-tu-size=32 / tu-inter-depth=1 / tu-intra-depth=1 / limit-tu=0 / rdoq-level=0 / dynamic-rd=0.00 / no-ssim-rd / signhide / no-tskip / nr-intra=0 / nr-inter=0 / no-constrained-intra / strong-intra-smoothing / max-merge=2 / limit-refs=0 / no-limit-modes / me=1 / subme=1 / merange=57 / temporal-mvp / no-frame-dup / no-hme / no-weightp / no-weightb / no-analyze-src-pics / deblock=0:0 / no-sao / no-sao-non-deblock / rd=2 / selective-sao=0 / early-skip / rskip / fast-intra / no-tskip-fast / no-cu-lossless / no-b-intra / no-splitrd-skip / rdpenalty=0 / psy-rd=2.00 / psy-rdoq=0.00 / no-rd-refine / no-lossless / cbqpoffs=0 / crqpoffs=0 / rc=crf / crf=24.0 / qcomp=0.60 / qpstep=4 / stats-write=0 / stats-read=0 / ipratio=1.40 / pbratio=1.30 / aq-mode=1 / aq-strength=0.00 / cutree / zone-count=0 / no-strict-cbr / qg-size=32 / no-rc-grain / qpmax=69 / qpmin=0 / no-const-vbv / sar=1 / overscan=0 / videoformat=5 / range=0 / colorprim=2 / transfer=2 / colormatrix=2 / chromaloc=0 / display-window=0 / cll=0,0 / min-luma=0 / max-luma=255 / log2-max-poc-lsb=8 / vui-timing-info / vui-hrd-info / slices=1 / no-opt-qp-pps / no-opt-ref-list-length-pps / no-multi-pass-opt-rps / scenecut-bias=0.05 / hist-threshold=0.01 / no-opt-cu-delta-qp / no-aq-motion / no-hdr10 / no-hdr10-opt / no-dhdr10-opt / no-idr-recovery-sei / analysis-reuse-level=0 / analysis-save-reuse-level=0 / analysis-load-reuse-level=0 / scale-factor=0 / refine-intra=0 / refine-inter=0 / refine-mv=1 / refine-ctu-distortion=0 / no-limit-sao / ctu-info=0 / no-lowpass-dct / refine-analysis-type=0 / copy-pic=1 / max-ausize-factor=1.0 / no-dynamic-refine / no-single-sei / no-hevc-aq / no-svt / no-field / qp-adaptation-range=1.00 / no-scenecut-aware-qpconformance-window-offsets / right=0 / bottom=0 / decoder-max-rate=0
Language                       : Hindi
Default                        : Yes
Forced                         : No
Color range                    : Limited

Audio
ID                             : 2
Format                         : MPEG Audio
Format version                 : Version 1
Format profile                 : Layer 3
Mode                           : Joint stereo
Mode extension                 : MS Stereo
Codec ID                       : A_MPEG/L3
Codec ID/Hint                  : MP3
Duration                       : 2 h 33 min
Bit rate mode                  : Constant
Bit rate                       : 64.0 kb/s
Channel(s)                     : 2 channels
Sampling rate                  : 48.0 kHz
Frame rate                     : 41.667 FPS (1152 SPF)
Compression mode               : Lossy
Stream size                    : 70.4 MiB (9%)
Writing library                : LAME3.100
Language                       : Hindi
Default                        : Yes
Forced                         : No



..:: SCREENSHOTS ::..




Files:

Sanam Teri Kasam (2016) 720p HEVC Hindi BRRip 800mb [FreshMoviesHD]
  • FreshMoviesHD - Latest Movies & Series in HD.txt (0.2 KB)
  • sanam teri kasam.mkv (820.9 MB)

There are currently no comments. Feel free to leave one :)

Code:

  • udp://tracker.coppersurfer.tk:6969/announce
  • udp://tracker.leechers-paradise.org:6969/announce
  • udp://tracker.opentrackr.org:1337/announce
  • udp://zer0day.to:1337/announce
  • udp://p4p.arenabg.ch:1337/announce
  • udp://tracker.tiny-vps.com:6969/announce
  • udp://open.stealth.si:80/announce
  • udp://tracker.zerobytes.xyz:1337/announce
  • udp://tracker.ds.is:6969/announce
  • udp://open.demonii.si:1337/announce
  • udp://retracker.lanta-net.ru:2710/announce