Aswathama (2020) UNCUT 720p HEVC Dual Audio [Hindi-Telugu] HDRip 700mb — FreshMoviesHD —

  • CategoryMovies
  • TypeDubs/Dual Audio
  • LanguageHindi
  • Total size694.9 MB
  • Uploaded ByStathamIN
  • Downloads2162
  • Last checkedJan. 22nd '21
  • Date uploadedJan. 19th '21
  • Seeders 80
  • Leechers7

Aswathama

Action Crime Thriller

After learning his sister has been mysteriously impregnated, Gana sets out to hunt down the culprit as he discovers similar cases in the city.

Infohash : 7ED4E765CA54C1864DC4942C4F4629A9101B00F5

Aswathama (2020) UNCUT 720p HEVC Dual Audio [Hindi-Telugu] HDRip 700mb — FreshMoviesHD —





..:: MEDIA INFO ::..


Format : Matroska
Format version : Version 4 / Version 2
File size : 695 MiB
Duration : 2 h 11 min
Overall bit rate : 741 kb/s
Encoded date : UTC 2021-01-19 04:02:08
Writing application : mkvmerge v42.0.0 ('Overtime') 64-bit
Writing library : libebml v1.3.10 + libmatroska v1.5.2

Video
ID : 1
Format : HEVC
Format/Info : High Efficiency Video Coding
Format profile : [email protected]@Main
Codec ID : V_MPEGH/ISO/HEVC
Duration : 2 h 11 min
Bit rate : 651 kb/s
Width : 1 280 pixels
Height : 544 pixels
Display aspect ratio : 2.35:1
Frame rate mode : Constant
Frame rate : 25.000 FPS
Color space : YUV
Chroma subsampling : 4:2:0
Bit depth : 8 bits
Bits/(Pixel*Frame) : 0.037
Stream size : 610 MiB (88%)
Writing library : x265 2.1:[Windows][GCC 5.3.1][64 bit] 8bit
Encoding settings : wpp / ctu=64 / min-cu-size=8 / max-tu-size=32 / tu-intra-depth=1 / tu-inter-depth=1 / me=1 / subme=2 / merange=57 / no-rect / no-amp / max-merge=2 / temporal-mvp / no-early-skip / rskip / rdpenalty=0 / no-tskip / no-tskip-fast / strong-intra-smoothing / no-lossless / no-cu-lossless / no-constrained-intra / no-fast-intra / open-gop / no-temporal-layers / interlace=0 / keyint=250 / min-keyint=25 / scenecut=40 / rc-lookahead=20 / lookahead-slices=0 / bframes=4 / bframe-bias=0 / b-adapt=2 / ref=3 / limit-refs=3 / no-limit-modes / weightp / no-weightb / aq-mode=1 / qg-size=32 / aq-strength=1.00 / cbqpoffs=0 / crqpoffs=0 / rd=3 / psy-rd=2.00 / rdoq-level=0 / psy-rdoq=0.00 / log2-max-poc-lsb=8 / no-rd-refine / signhide / deblock=0:0 / sao / no-sao-non-deblock / b-pyramid / cutree / no-intra-refresh / rc=2 / pass / bitrate=650 / qcomp=0.60 / qpmin=0 / qpmax=69 / qpstep=4 / cplxblur=20.0 / qblur=0.5 / ipratio=1.40 / pbratio=1.30
Default : Yes
Forced : No
Color range : Limited
Color primaries : BT.709
Transfer characteristics : BT.709
Matrix coefficients : BT.709

Audio #1
ID : 2
Format : AAC
Format/Info : Advanced Audio Codec
Format profile : HE-AACv2 / HE-AAC / LC
Codec ID : A_AAC
Duration : 2 h 11 min
Bit rate : 56.0 kb/s
Channel(s) : 2 channels / 2 channels / 2 channels
Channel positions : Front: L R / Front: L R / Front: L R
Sampling rate : 48.0 kHz / 48.0 kHz / 24.0 kHz
Frame rate : 23.438 FPS (1024 SPF)
Compression mode : Lossy
Stream size : 52.5 MiB (8%)
Language : Hindi
Default : Yes
Forced : No

Audio #2
ID : 3
Format : AAC
Format/Info : Advanced Audio Codec
Format profile : HE-AACv2 / HE-AAC / LC
Codec ID : A_AAC
Duration : 2 h 11 min
Bit rate : 32.0 kb/s
Channel(s) : 2 channels / 2 channels / 2 channels
Channel positions : Front: L R / Front: L R / Front: L R
Sampling rate : 48.0 kHz / 48.0 kHz / 24.0 kHz
Frame rate : 23.438 FPS (1024 SPF)
Compression mode : Lossy
Stream size : 30.0 MiB (4%)
Language : Telugu
Default : No
Forced : No



..:: SCREENSHOTS ::..





Files:

Aswathama (2020) UNCUT 720p HEVC Dual Audio [Hindi-Telugu] HDRip 700mb — FreshMoviesHD —
  • FreshMoviesHD - Latest Movies & Series in HD.txt (0.2 KB)
  • Aswathama (2020) UNCUT 720p HEVC Dual Audio [Hindi-Telugu] HDRip 700mb — FreshMoviesHD —.mkv (694.9 MB)

Code:

  • udp://tracker.coppersurfer.tk:6969/announce
  • udp://tracker.leechers-paradise.org:6969/announce
  • udp://tracker.opentrackr.org:1337/announce
  • udp://zer0day.to:1337/announce
  • udp://p4p.arenabg.ch:1337/announce
  • udp://tracker.tiny-vps.com:6969/announce
  • udp://open.stealth.si:80/announce
  • udp://tracker.zerobytes.xyz:1337/announce
  • udp://tracker.ds.is:6969/announce
  • udp://open.demonii.si:1337/announce
  • udp://retracker.lanta-net.ru:2710/announce