Abrahaminte Santhathikal {Babbar The Police} (2018) UNCUT Hindi Dubbed HDRip x264 AAC 400mb — FreshMoviesHD

  • CategoryMovies
  • Typeh.264/x264
  • LanguageHindi
  • Total size423.3 MB
  • Uploaded ByStathamIN
  • Downloads1315
  • Last checkedJan. 28th '21
  • Date uploadedJan. 25th '21
  • Seeders 35
  • Leechers4

Infohash : CA45CAC1F301F2E8ADF6923E9AB65DC3823837D3



https://FreshMoviesHD.com



Abrahaminte Santhathikal {Babbar The Police} (2018) UNCUT Hindi Dubbed HDRip x264 AAC 400mb — FreshMoviesHD





..:: MEDIA INFO ::..


Format                         : Matroska
Format version                 : Version 4 / Version 2
File size                      : 423 MiB
Duration                       : 2 h 9 min
Overall bit rate               : 458 kb/s
Encoded date                   : UTC 2021-01-25 04:45:37
Writing application            : mkvmerge v42.0.0 ('Overtime') 64-bit
Writing library                : libebml v1.3.10 + libmatroska v1.5.2

Video
ID                             : 1
Format                         : AVC
Format/Info                    : Advanced Video Codec
Format profile                 : [email protected]
Format settings, CABAC         : Yes
Format settings, RefFrames     : 5 frames
Codec ID                       : V_MPEG4/ISO/AVC
Duration                       : 2 h 9 min
Bit rate                       : 400 kb/s
Width                          : 720 pixels
Height                         : 306 pixels
Display aspect ratio           : 2.35:1
Frame rate mode                : Constant
Frame rate                     : 25.000 FPS
Color space                    : YUV
Chroma subsampling             : 4:2:0
Bit depth                      : 8 bits
Scan type                      : Progressive
Bits/(Pixel*Frame)             : 0.073
Stream size                    : 370 MiB (87%)
Writing library                : x264 core 142 r2479 dd79a61
Encoding settings              : cabac=1 / ref=5 / deblock=1:0:0 / analyse=0x3:0x113 / me=umh / subme=8 / psy=1 / psy_rd=1.00:0.00 / mixed_ref=1 / me_range=16 / chroma_me=1 / trellis=1 / 8x8dct=1 / cqm=0 / deadzone=21,11 / fast_pskip=1 / chroma_qp_offset=-2 / threads=48 / lookahead_threads=2 / sliced_threads=0 / nr=0 / decimate=1 / interlaced=0 / bluray_compat=0 / constrained_intra=0 / bframes=3 / b_pyramid=2 / b_adapt=2 / b_bias=0 / direct=3 / weightb=1 / open_gop=0 / weightp=2 / keyint=250 / keyint_min=25 / scenecut=40 / intra_refresh=0 / rc_lookahead=50 / rc=2pass / mbtree=1 / bitrate=400 / ratetol=1.0 / qcomp=0.60 / qpmin=0 / qpmax=69 / qpstep=4 / cplxblur=20.0 / qblur=0.5 / vbv_maxrate=25000 / vbv_bufsize=31250 / nal_hrd=none / filler=0 / ip_ratio=1.40 / aq=1:1.00
Default                        : Yes
Forced                         : Yes
Color range                    : Limited
Color primaries                : BT.709
Transfer characteristics       : BT.709
Matrix coefficients            : BT.709

Audio
ID                             : 2
Format                         : AAC
Format/Info                    : Advanced Audio Codec
Format profile                 : HE-AAC / LC
Codec ID                       : A_AAC
Duration                       : 2 h 9 min
Bit rate                       : 56.0 kb/s
Channel(s)                     : 2 channels
Channel positions              : Front: L R
Sampling rate                  : 48.0 kHz / 24.0 kHz
Frame rate                     : 23.438 FPS (1024 SPF)
Compression mode               : Lossy
Delay relative to video        : -105 ms
Stream size                    : 51.8 MiB (12%)
Language                       : Hindi
Default                        : Yes
Forced                         : Yes



..:: SCREENSHOTS ::..






Files:

Abrahaminte Santhathikal {Babbar The Police} (2018) UNCUT Hindi Dubbed HDRip x264 AAC 400mb — FreshMoviesHD
  • FreshMoviesHD - Latest Movies & Series in HD.txt (0.2 KB)
  • Abrahaminte Santhathikal {Babbar The Police} (2018) UNCUT Hindi Dubbed HDRip x264 AAC 400mb — FreshMoviesHD.mkv (423.3 MB)

Code:

  • udp://tracker.coppersurfer.tk:6969/announce
  • udp://tracker.leechers-paradise.org:6969/announce
  • udp://tracker.opentrackr.org:1337/announce
  • udp://zer0day.to:1337/announce
  • udp://p4p.arenabg.ch:1337/announce
  • udp://tracker.tiny-vps.com:6969/announce
  • udp://open.stealth.si:80/announce
  • udp://tracker.zerobytes.xyz:1337/announce
  • udp://tracker.ds.is:6969/announce
  • udp://open.demonii.si:1337/announce
  • udp://retracker.lanta-net.ru:2710/announce