Prabha Ki Diary (2021) ULLU Season 2 [ Dil Se Lekin ] Part 1 Complete 720p Hindi WEBRip x264 AAC 500mb — MechBoy

  • CategoryTV
  • TypeHD
  • LanguageHindi
  • Total size468.9 MB
  • Uploaded ByStathamIN
  • Downloads3351
  • Last checkedFeb. 01st '21
  • Date uploadedJan. 29th '21
  • Seeders 133
  • Leechers25

Infohash : 01FD78262D5CC95ABA1EB2870B0B7EC9F9009507



https://FreshMoviesHD.com



Prabha Ki Diary (2021) ULLU Season 2 [ Dil Se Lekin ] Part 1 Complete 720p Hindi WEBRip x264 AAC 500mb — MechBoy





..:: MEDIA INFO ::..


Format : Matroska
Format version : Version 4 / Version 2
File size : 469 MiB
Duration : 1 h 3 min
Overall bit rate : 1 031 kb/s
Encoded date : UTC 2021-01-29 04:25:04
Writing application : mkvmerge v42.0.0 ('Overtime') 64-bit
Writing library : libebml v1.3.10 + libmatroska v1.5.2

Video
ID : 1
Format : AVC
Format/Info : Advanced Video Codec
Format profile : [email protected]
Format settings, CABAC : Yes
Format settings, RefFrames : 4 frames
Codec ID : V_MPEG4/ISO/AVC
Duration : 1 h 3 min
Bit rate : 901 kb/s
Width : 1 280 pixels
Height : 720 pixels
Display aspect ratio : 16:9
Frame rate mode : Variable
Frame rate : 24.974 FPS
Color space : YUV
Chroma subsampling : 4:2:0
Bit depth : 8 bits
Scan type : Progressive
Bits/(Pixel*Frame) : 0.039
Stream size : 410 MiB (87%)
Language : Hindi
Default : Yes
Forced : No

Audio
ID : 2
Format : AAC
Format/Info : Advanced Audio Codec
Format profile : LC
Codec ID : A_AAC
Duration : 1 h 3 min
Bit rate : 128 kb/s
Channel(s) : 2 channels
Channel positions : Front: L R
Sampling rate : 48.0 kHz
Frame rate : 46.875 FPS (1024 SPF)
Compression mode : Lossy
Delay relative to video : -3 s 29 ms
Stream size : 58.2 MiB (12%)
Language : Hindi
Default : Yes
Forced : No



..:: SCREENSHOTS ::..













Files:

Prabha Ki Diary (2021) Season 2 [ Dil Se Lekin ] Part 1 Complete 720p Hindi WEBRip x264 AAC 500mb — MechBoy
  • FreshMoviesHD - Latest Movies & Series in HD.txt (0.2 KB)
  • Prabha Ki Diary (2021) Season 2 [ Dil Se Lekin ] Part 1 Complete 720p Hindi WEBRip x264 AAC 500mb — MechBoy.mkv (468.9 MB)

Code:

  • udp://tracker.coppersurfer.tk:6969/announce
  • udp://tracker.leechers-paradise.org:6969/announce
  • udp://tracker.opentrackr.org:1337/announce
  • udp://zer0day.to:1337/announce
  • udp://p4p.arenabg.ch:1337/announce
  • udp://tracker.tiny-vps.com:6969/announce
  • udp://open.stealth.si:80/announce
  • udp://tracker.zerobytes.xyz:1337/announce
  • udp://tracker.ds.is:6969/announce
  • udp://open.demonii.si:1337/announce
  • udp://retracker.lanta-net.ru:2710/announce