Dybbuk 2021 720p AMZN WEB-DL AC3 HEVC - SunGeorge

  • CategoryMovies
  • TypeHD
  • LanguageHindi
  • Total size1.1 GB
  • Uploaded BySungeorge
  • Downloads230
  • Last checkedNov. 01st '21
  • Date uploadedOct. 29th '21
  • Seeders 15
  • Leechers3

Dybbuk

Horror Thriller

Mahi, a newly married woman, brings an antique Jewish box into her home. When Mahi and her husband Sam begin to have paranormal experiences, they soon learn that the box is a dybbuk containing an evil spirit. The couple then seeks the help of a rabbi to unravel its mystery. Will they survive this ordeal before their child is born?

Infohash : F75FFF3D7AEB651E3E53FB7A83E03A72084DF217

Dybbuk 2021 720p AMZN WEB-DL AC3 HEVC - SunGeorge





Quote:


Dybbuk 2021 720p AMZN WEB-DL AC3 HEVC - SunGeorge










Code:

General
Unique ID : 69032633272690585594674933276220740286 (0x33EF33992C2CB7D88A3E003BF3E252BE)
Complete name : Dybbuk.2021.720p.AMZN.WEB-DL.AC3.HEVC.mkv
Format : Matroska
Format version : Version 4
File size : 1.12 GiB
Duration : 1 h 52 min
Overall bit rate : 1 431 kb/s
Movie name : MovieAIO
Encoded date : UTC 2021-10-28 17:40:00
Writing application : mkvmerge v61.0.0 ('So') 64-bit
Writing library : libebml v1.4.2 + libmatroska v1.6.4

Video
ID : 1
Format : HEVC
Format/Info : High Efficiency Video Coding
Format profile : [email protected]@Main
Codec ID : V_MPEGH/ISO/HEVC
Duration : 1 h 52 min
Bit rate : 1 237 kb/s
Width : 1 280 pixels
Height : 720 pixels
Display aspect ratio : 16:9
Frame rate mode : Constant
Frame rate : 24.000 FPS
Standard : NTSC
Color space : YUV
Chroma subsampling : 4:2:0
Bit depth : 8 bits
Bits/(Pixel*Frame) : 0.056
Stream size : 994 MiB (86%)
Default : Yes
Forced : No
Color range : Limited
Color primaries : BT.709
Transfer characteristics : BT.709
Matrix coefficients : BT.709

Audio
ID : 2
Format : AC-3
Format/Info : Audio Coding 3
Commercial name : Dolby Digital
Codec ID : A_AC3
Duration : 1 h 52 min
Bit rate mode : Constant
Bit rate : 192 kb/s
Channel(s) : 6 channels
Channel layout : L R C LFE Ls Rs
Sampling rate : 48.0 kHz
Frame rate : 31.250 FPS (1536 SPF)
Compression mode : Lossy
Stream size : 154 MiB (13%)
Language : Hindi
Service kind : Complete Main
Default : Yes
Forced : No

Text #1
ID : 3
Format : UTF-8
Codec ID : S_TEXT/UTF8
Codec ID/Info : UTF-8 Plain Text
Duration : 1 h 44 min
Bit rate : 36 b/s
Count of elements : 1067
Stream size : 27.9 KiB (0%)
Title : English [SDH]
Language : English
Default : No
Forced : No

Text #2
ID : 4
Format : UTF-8
Codec ID : S_TEXT/UTF8
Codec ID/Info : UTF-8 Plain Text
Duration : 1 h 44 min
Bit rate : 31 b/s
Count of elements : 803
Stream size : 24.4 KiB (0%)
Title : English
Language : English
Default : No
Forced : No




Files:

Dybbuk.2021.720p.AMZN.WEB-DL.AC3.HEVC
  • Dybbuk.2021.720p.AMZN.WEB-DL.AC3.HEVC.mkv (1.1 GB)
  • Download torrent with SonicBit.txt (0.1 KB)

Code:

  • udp://p4p.arenabg.ch:1337/announce
  • http://p4p.arenabg.com:1337/announce
  • udp://tracker.internetwarriors.net:1337/announce
  • udp://tracker.opentrackr.org:1337/announce
  • udp://exodus.desync.com:6969/announce
  • udp://tracker.openbittorrent.com:6969/announce
  • udp://retracker.lanta-net.ru:2710/announce
  • udp://open.stealth.si:80/announce
  • udp://www.torrent.eu.org:451/announce
  • udp://tracker.torrent.eu.org:451/announce
  • udp://zephir.monocul.us:6969/announce
  • udp://z.mercax.com:53/announce
  • udp://wassermann.online:6969/announce
  • udp://vibe.community:6969/announce
  • udp://valakas.rollo.dnsabr.com:2710/announce
  • udp://udp-tracker.shittyurl.org:6969/announce
  • udp://tracker2.dler.org:80/announce
  • udp://tracker1.bt.moack.co.kr:80/announce
  • udp://tracker0.ufibox.com:6969/announce
  • udp://tracker.zerobytes.xyz:1337/announce