Hum Do Hamare Do 2021 720p WEB-DL DDP5.1 x265 HEVC - SunGeorge

  • CategoryMovies
  • TypeHD
  • LanguageHindi
  • Total size860.6 MB
  • Uploaded BySungeorge
  • Downloads687
  • Last checkedNov. 02nd '21
  • Date uploadedOct. 30th '21
  • Seeders 5
  • Leechers6

Hum Do Hamare Do

Comedy Drama Family

Self-made man Dhruv and social media star Anya fall in love and decide to marry. Just one problem - he's an orphan. Anya will only marry a guy, who has an adorable family, so the only solution - arrange a 'fake' set of parents. The chaos ensues when the fake father wants to marry his make-do wife.

Infohash : F5E31AE3437E4F5A409A9A3D51AFEE5A9904A577

Hum Do Hamare Do 2021 720p WEB-DL DDP5 1 x265 HEVC - SunGeorge





Quote:


Hum Do Hamare Do 2021 720p WEB-DL DDP5 1 x265 HEVC - SunGeorge












Code:

General
Unique ID : 225191729097874346789847065703561830478 (0xA96A59743B1F2B1D92A4CAD897AC204E)
Complete name : Hum.Do.Hamare.Do.2021.720p.WEB-DL.DDP5.1.x265.HEVC.mkv
Format : Matroska
Format version : Version 4
File size : 861 MiB
Duration : 2 h 8 min
Overall bit rate : 935 kb/s
Movie name : MovieAIO
Writing application : Lavf58.76.100
Writing library : Lavf58.76.100
ErrorDetectionType : Per level 1

Video
ID : 1
Format : HEVC
Format/Info : High Efficiency Video Coding
Format profile : [email protected]@Main
Codec ID : V_MPEGH/ISO/HEVC
Duration : 2 h 8 min
Bit rate : 3 281 kb/s
Width : 1 280 pixels
Height : 720 pixels
Display aspect ratio : 16:9
Frame rate mode : Constant
Frame rate : 24.000 FPS
Color space : YUV
Chroma subsampling : 4:2:0
Bit depth : 8 bits
Bits/(Pixel*Frame) : 0.148
Stream size : 2.95 GiB
Title : MovieAIO
Writing library : x265 3.4_RC1+3-18610b4f88bc:[Linux][GCC 9.3.0][64 bit] 8bit
Encoding settings : cpuid=1111039 / frame-threads=4 / wpp / no-pmode / no-pme / no-psnr / no-ssim / log-level=2 / input-csp=1 / input-res=1280x720 / interlace=0 / total-frames=0 / level-idc=0 / high-tier=1 / uhd-bd=0 / ref=1 / no-allow-non-conformance / no-repeat-headers / annexb / no-aud / no-hrd / info / hash=0 / no-temporal-layers / open-gop / min-keyint=24 / keyint=250 / gop-lookahead=0 / bframes=3 / b-adapt=0 / b-pyramid / bframe-bias=0 / rc-lookahead=10 / lookahead-slices=4 / scenecut=40 / hist-scenecut=0 / radl=0 / no-splice / no-intra-refresh / ctu=32 / min-cu-size=8 / no-rect / no-amp / max-tu-size=32 / tu-inter-depth=1 / tu-intra-depth=1 / limit-tu=0 / rdoq-level=0 / dynamic-rd=0.00 / no-ssim-rd / signhide / no-tskip / nr-intra=0 / nr-inter=0 / no-constrained-intra / strong-intra-smoothing / max-merge=2 / limit-refs=0 / no-limit-modes / me=1 / subme=1 / merange=57 / temporal-mvp / no-frame-dup / no-hme / no-weightp / no-weightb / no-analyze-src-pics / deblock=0:0 / no-sao / no-sao-non-deblock / rd=2 / selective-sao=0 / early-skip / rskip / fast-intra / no-tskip-fast / no-cu-lossless / no-b-intra / no-splitrd-skip / rdpenalty=0 / psy-rd=2.00 / psy-rdoq=0.00 / no-rd-refine / no-lossless / cbqpoffs=0 / crqpoffs=0 / rc=crf / crf=23.0 / qcomp=0.60 / qpstep=4 / stats-write=0 / stats-read=0 / ipratio=1.40 / pbratio=1.30 / aq-mode=1 / aq-strength=0.00 / cutree / zone-count=0 / no-strict-cbr / qg-size=32 / no-rc-grain / qpmax=69 / qpmin=0 / no-const-vbv / sar=1 / overscan=0 / videoformat=5 / range=0 / colorprim=1 / transfer=2 / colormatrix=1 / chromaloc=0 / display-window=0 / cll=0,0 / min-luma=0 / max-luma=255 / log2-max-poc-lsb=8 / vui-timing-info / vui-hrd-info / slices=1 / no-opt-qp-pps / no-opt-ref-list-length-pps / no-multi-pass-opt-rps / scenecut-bias=0.05 / hist-threshold=0.01 / no-opt-cu-delta-qp / no-aq-motion / no-hdr10 / no-hdr10-opt / no-dhdr10-opt / no-idr-recovery-sei / analysis-reuse-level=0 / analysis-save-reuse-level=0 / analysis-load-reuse-level=0 / scale-factor=0 / refine-intra=0 / refine-inter=0 / refine-mv=1 / refine-ctu-distortion=0 / no-limit-sao / ctu-info=0 / no-lowpass-dct / refine-analysis-type=0 / copy-pic=1 / max-ausize-factor=1.0 / no-dynamic-refine / no-single-sei / no-hevc-aq / no-svt / no-field / qp-adaptation-range=1.00 / no-scenecut-aware-qpconformance-window-offsets / right=0 / bottom=0 / decoder-max-rate=0
Default : Yes
Forced : No
Color range : Limited
Color primaries : BT.709
Matrix coefficients : BT.709

Audio
ID : 2
Format : E-AC-3
Format/Info : Enhanced AC-3
Commercial name : Dolby Digital Plus
Codec ID : A_EAC3
Duration : 2 h 8 min
Bit rate mode : Constant
Bit rate : 192 kb/s
Channel(s) : 6 channels
Channel layout : L R C LFE Ls Rs
Sampling rate : 48.0 kHz
Frame rate : 31.250 FPS (1536 SPF)
Bit depth : 32 bits
Compression mode : Lossy
Stream size : 177 MiB (21%)
Language : Hindi
Service kind : Complete Main
Default : Yes
Forced : No

Text
ID : 3
Format : UTF-8
Codec ID : S_TEXT/UTF8
Codec ID/Info : UTF-8 Plain Text
Duration : 2 h 6 min
Bit rate : 71 b/s
Count of elements : 2272
Stream size : 66.0 KiB (0%)
Default : Yes
Forced : No




Files:

Hum.Do.Hamare.Do.2021.720p.WEB-DL.DDP5.1.x265.HEVC
  • Hum.Do.Hamare.Do.2021.720p.WEB-DL.DDP5.1.x265.HEVC.mkv (860.6 MB)
  • Download torrent with SonicBit.txt (0.1 KB)

Code:

  • udp://p4p.arenabg.ch:1337/announce
  • http://p4p.arenabg.com:1337/announce
  • udp://tracker.internetwarriors.net:1337/announce
  • udp://tracker.opentrackr.org:1337/announce
  • udp://exodus.desync.com:6969/announce
  • udp://tracker.openbittorrent.com:6969/announce
  • udp://retracker.lanta-net.ru:2710/announce
  • udp://open.stealth.si:80/announce
  • udp://www.torrent.eu.org:451/announce
  • udp://tracker.torrent.eu.org:451/announce
  • udp://zephir.monocul.us:6969/announce
  • udp://z.mercax.com:53/announce
  • udp://wassermann.online:6969/announce
  • udp://vibe.community:6969/announce
  • udp://valakas.rollo.dnsabr.com:2710/announce
  • udp://udp-tracker.shittyurl.org:6969/announce
  • udp://tracker2.dler.org:80/announce
  • udp://tracker1.bt.moack.co.kr:80/announce
  • udp://tracker0.ufibox.com:6969/announce
  • udp://tracker.zerobytes.xyz:1337/announce