Jalsa (2022) Hindi DS4K (1080p AMZN WEBRip x265 HEVC 10bit DD 5.1 ESub) - [Musafirboy]

  • CategoryMovies
  • TypeBollywood
  • LanguageHindi
  • Total size2 GB
  • Uploaded ByMusafirboy
  • Downloads3332
  • Last checkedMar. 19th '22
  • Date uploadedMar. 18th '22
  • Seeders 165
  • Leechers65

Jalsa

Drama Thriller

A hit and run of an 18-year-old girl becomes the hub of a wheel that sets into motion many a spoke - a journalist, a raging mother, a cop and a system all caught in an ethical dilemma. Questions are raised only to realize that the truth is rarely pure and never simple.

Infohash : C52B2A044D94189C667C9694A2177F588827EA58





Jalsa (2022) Hindi | 1080p DS4K 10bit | IMDb (NA/10)

? Original Audio: Hindi












Source Information


Code:

Release:
Jalsa.(2022).2160p.HQ.AMZN.WEB-DL.DDP5.1.HEVC-REVOLT ~ 6.4GB


Media Information


Code:

General
Complete name : Jalsa (2022) Hindi (1080p DS4K WEBRip x265 10bit AC3) - [Musafirboy].mkv
Format : Matroska
Format version : Version 4
File size : 1.99 GiB
Duration : 2 h 6 min
Overall bit rate : 2242 kb/s
Encoded date : UTC 2022-03-18 01:30:56
Writing application : [Musafirboy]

Video
Format : HEVC
Format/Info : High Efficiency Video Coding
Format profile : Main [email protected]@Main
Codec ID : V_MPEGH/ISO/HEVC
Duration : 2 h 6 min
Bit rate : 1792 kb/s
Width : 1920 pixels
Height : 960 pixels
Display aspect ratio : 2.000
Frame rate mode : Constant
Frame rate : 24.000 FPS
Color space : YUV
Chroma subsampling : 4:2:0
Bit depth : 10 bits
Bits/(Pixel*Frame) : 0.041
Stream size : 1.59 GiB (80%)
Default : Yes
Forced : No

Audio
Format : AC-3
Format/Info : Audio Coding 3
Commercial name : Dolby Digital
Codec ID : A_AC3
Duration : 2 h 6 min
Bit rate mode : Constant
Bit rate : 448 kb/s
Channel(s) : 6 channels
Channel layout : L R C LFE Ls Rs
Sampling rate : 48.0 kHz
Frame rate : 31.250 FPS (1536 SPF)
Compression mode : Lossy
Stream size : 407 MiB (20%)
Title : Hindi
Language : Hindi

Subtitle
Format : UTF-8
Codec ID : S_TEXT/UTF8
Codec ID/Info : UTF-8 Plain Text
Duration : 2 h 2 min
Bit rate : 41 b/s
Count of elements : 1231
Stream size : 37.7 KiB (0%)
Title : English [SDH]
Language : English




Files:

Jalsa (2022) Hindi (1080p DS4K WEBRip x265 10bit AC3) - [Musafirboy]
  • Encoded by Musafirboy.txt (0.4 KB)
  • Jalsa (2022) Hindi (1080p DS4K WEBRip x265 10bit AC3) - [Musafirboy].mkv (2.0 GB)
  • Musafirboy Official.url (0.0 KB)

Code:

  • udp://tracker.leechers-paradise.org:6969/announce
  • udp://tracker.coppersurfer.tk:6969/announce
  • udp://tracker.opentrackr.org:1337/announce
  • udp://p4p.arenabg.com:1337/announce
  • https://tracker.nanoha.org:443/announce
  • https://tracker.lilithraws.cf:443/announce
  • https://tracker.iriseden.fr:443/announce
  • https://t1.tokhmi.xyz:443/announce
  • http://vps02.net.orel.ru:80/announce
  • http://googer.cc:1337/announce
  • https://tracker.nitrix.me:443/announce
  • https://mytracker.fly.dev:443/announce
  • http://tracker.bt4g.com:2095/announce
  • http://fxtt.ru:80/announce