Better.Call.Saul.S06E02.1080p.WEB.H264-GLHF

  • Category TV
  • Type HD
  • Language English
  • Total size 2.8 GB
  • Uploaded By TheMorozko
  • Downloads 11852
  • Last checked 4 weeks ago
  • Date uploaded 1 month ago
  • Seeders 1403
  • Leechers 184

Infohash : F6DA4234B62BFB40F7F69350F3A6455BCD7973CD


Screens... (click to enlarge):





Better.Call.Saul.S06E02.1080p.WEB.H264-GLHF

Show: Better Call Saul
Title: Carrot and Stick
Season: 6
Episode: 2
Size: 2855M
Files: 10F
Date: 2022-04-19
Duration: 1 h 0 min

Source: Web
Encoding: H264
Bitrate: 6 495 kb/s
Audio Format: E-AC-3 (Dolby Digital Plus)
Audio Rate: 640 kb/s @ 6 channels
Audio Lang: English
Sub count: 2
Subtitles: English / English

Infolink -> https://www.imdb.com/title/tt3032476/

Quote:

Mediainfo
Video
ID : 1
Format : AVC
Format/Info : Advanced Video Codec
Format profile : [email protected]
Format settings : CABAC / 4 Ref Frames
Format settings, CABAC : Yes
Format settings, Reference frames : 4 frames
Codec ID : V_MPEG4/ISO/AVC
Duration : 1 h 0 min
Bit rate mode : Constant
Bit rate : 5 726 kb/s
Nominal bit rate : 10 000 kb/s
Width : 1 920 pixels
Height : 1 080 pixels
Display aspect ratio : 16:9
Frame rate mode : Constant
Frame rate : 24.000 FPS
Color space : YUV
Chroma subsampling : 4:2:0
Bit depth : 8 bits
Scan type : Progressive
Bits/(Pixel*Frame) : 0.115
Stream size : 2.43 GiB (88%)
Default : Yes
Forced : No
Color range : Limited
Color primaries : BT.709
Transfer characteristics : BT.709
Matrix coefficients : BT.709

Audio
ID : 2
Format : E-AC-3
Format/Info : Enhanced AC-3
Commercial name : Dolby Digital Plus
Codec ID : A_EAC3
Duration : 1 h 0 min
Bit rate mode : Constant
Bit rate : 640 kb/s
Channel(s) : 6 channels
Channel layout : L R C LFE Ls Rs
Sampling rate : 48.0 kHz
Frame rate : 31.250 FPS (1536 SPF)
Compression mode : Lossy
Stream size : 278 MiB (10%)
Language : English
Service kind : Complete Main
Default : Yes
Forced : No

Text #1
ID : 3
Format : UTF-8
Codec ID : S_TEXT/UTF8
Codec ID/Info : UTF-8 Plain Text
Title : English
Language : English
Default : No
Forced : No

Text #2
ID : 4
Format : UTF-8
Codec ID : S_TEXT/UTF8
Codec ID/Info : UTF-8 Plain Text
Title : English [SDH]
Language : English
Default : No
Forced : No

Files:

Better.Call.Saul.S06E02.1080p.WEB.H264-GLHF[rarbg]
  • RARBG.txt (0.0 KB)
  • RARBG_DO_NOT_MIRROR.exe (0.1 KB)
  • better.call.saul.s06e02.1080p.web.h264-glhf.mkv (2.8 GB)
  • better.call.saul.s06e02.1080p.web.h264-glhf.nfo (0.4 KB)

Comments

Code:

  • http://tracker.trackerfix.com:80/announce
  • udp://9.rarbg.me:2870/announce
  • udp://9.rarbg.to:2900/announce
  • udp://tracker.fatkhoala.org:13770/announce
  • udp://tracker.slowcheetah.org:14720/announce