Gangubai Kathiawadi (2022) Hindi 720p WEBRip x264 AAC ESub

  • Category Movies
  • Type Bollywood
  • Language Hindi
  • Total size 1.3 GB
  • Uploaded By krishh1337
  • Downloads 10437
  • Last checked 2 weeks ago
  • Date uploaded 3 weeks ago
  • Seeders 190
  • Leechers 55

Gangubai Kathiawadi

CrimeDrama

Young Ganga is sold to a brothel in Mumbai in the garb of becoming an actor by her lover in the 1950s. She goes on to become the feared Gangubai - the Matriarch of Kamathipura - the champion of female emancipation and advocate of rights for sex workers in a chauvinist and narrow-minded society.

Infohash : 44D7C269E0632C166781019786E9984F57952E30




Video
ID : 1
Format : AVC
Format/Info : Advanced Video Codec
Format profile : [email protected]
Format settings : CABAC / 12 Ref Frames
Format settings, CABAC : Yes
Format settings, Reference frames : 12 frames
Codec ID : V_MPEG4/ISO/AVC
Duration : 2 h 33 min
Bit rate : 1 140 kb/s
Width : 1 280 pixels
Height : 536 pixels

Audio
ID : 2
Format : AAC LC
Format/Info : Advanced Audio Codec Low Complexity
Codec ID : A_AAC-2
Duration : 2 h 33 min
Bit rate : 125 kb/s
Channel(s) : 2 channels
Channel layout : L R
Sampling rate : 48.0 kHz
Frame rate : 46.875 FPS (1024 SPF)
Compression mode : Lossy
Stream size : 137 MiB (10%)
Language : Hindi
Default : Yes
Forced : No

Text
ID : 3
Format : UTF-8
Codec ID : S_TEXT/UTF8
Codec ID/Info : UTF-8 Plain Text
Duration : 2 h 28 min
Bit rate : 58 b/s
Count of elements : 2114
Stream size : 63.3 KiB (0%)
Language : English

Files:

  • Gangubai Kathiawadi (2022) Hindi 720p WEBRip x264 AAC ESub.mkv (1.3 GB)

There are currently no comments. Feel free to leave one :)

Code:

  • udp://tracker.tiny-vps.com:6969/announce
  • udp://tracker.torrent.eu.org:451/announce
  • udp://exodus.desync.com:6969/announce
  • udp://explodie.org:6969/announce
  • udp://tracker.opentrackr.org:1337/announce
  • http://t.nyaatracker.com:80/announce
  • udp://open.stealth.si:80/announce
  • http://tracker.dler.org:6969/announce
  • udp://ipv4.tracker.harry.lu:80/announce
  • http://vps02.net.orel.ru:80/announce
  • udp://vibe.sleepyinternetfun.xyz:1738/announce
  • udp://tracker.bitsearch.to:1337/announce
  • udp://inferno.demonoid.is:3391/announce
  • udp://www.torrent.eu.org:451/announce
  • udp://open.tracker.cl:1337/announce