Star.Trek.Strange.New.Worlds.S01E01.1080p.WEB.H264-PECULATE

  • Category TV
  • Type HD
  • Language English
  • Total size 2.0 GB
  • Uploaded By TheMorozko
  • Downloads 11454
  • Last checked 5 days ago
  • Date uploaded 1 week ago
  • Seeders 1700
  • Leechers 293

Infohash : 45F5C11EDB542C5347BD202F8728AB1D1693523B


Screens... (click to enlarge):





Star.Trek.Strange.New.Worlds.S01E01.1080p.WEB.H264-PECULATE

Release Size  : 1.96 GiB
Duration      : 54 min 17 s
Resolution    : 1920x800
Video Bitrate : 4 537 kb/s
Audio         : (English) E-AC-3 6ch 640 kb/s

Infolink -> https://www.imdb.com/title/tt12327578/

Quote:

Mediainfo
Video
ID : 1
Format : AVC
Format/Info : Advanced Video Codec
Format profile : [email protected]
Format settings : CABAC / 4 Ref Frames
Format settings, CABAC : Yes
Format settings, Reference frames : 4 frames
Codec ID : V_MPEG4/ISO/AVC
Duration : 54 min 17 s
Bit rate mode : Constant
Bit rate : 4 537 kb/s
Nominal bit rate : 10 000 kb/s
Width : 1 920 pixels
Height : 800 pixels
Display aspect ratio : 2.40:1
Frame rate mode : Constant
Frame rate : 24.000 FPS
Color space : YUV
Chroma subsampling : 4:2:0
Bit depth : 8 bits
Scan type : Progressive
Bits/(Pixel*Frame) : 0.123
Stream size : 1.72 GiB (88%)
Language : English
Default : Yes
Forced : No
Color range : Limited
Color primaries : BT.709
Transfer characteristics : BT.709
Matrix coefficients : BT.709

Audio
ID : 2
Format : E-AC-3
Format/Info : Enhanced AC-3
Commercial name : Dolby Digital Plus
Codec ID : A_EAC3
Duration : 54 min 17 s
Bit rate mode : Constant
Bit rate : 640 kb/s
Channel(s) : 6 channels
Channel layout : L R C LFE Ls Rs
Sampling rate : 48.0 kHz
Frame rate : 31.250 FPS (1536 SPF)
Compression mode : Lossy
Stream size : 249 MiB (12%)
Language : English
Service kind : Complete Main
Default : Yes
Forced : No

Text
ID : 3
Format : UTF-8
Codec ID : S_TEXT/UTF8
Codec ID/Info : UTF-8 Plain Text
Duration : 52 min 40 s
Bit rate : 80 b/s
Count of elements : 1041
Stream size : 30.9 KiB (0%)
Title : English
Language : English
Default : No
Forced : No

Files:

Star.Trek.Strange.New.Worlds.S01E01.1080p.WEB.H264-PECULATE[rarbg]
  • RARBG.txt (0.0 KB)
  • RARBG_DO_NOT_MIRROR.exe (0.1 KB)
  • Star.Trek.Strange.New.Worlds.S01E01.1080p.WEB.H264-PECULATE.mkv (2.0 GB)
  • star.trek.strange.new.worlds.s01e01.1080p.web.h264-peculate.nfo (0.2 KB)

Comments

Code:

  • http://tracker.trackerfix.com:80/announce
  • udp://9.rarbg.me:2820/announce
  • udp://9.rarbg.to:2950/announce
  • udp://tracker.slowcheetah.org:14750/announce
  • udp://tracker.tallpenguin.org:15790/announce