Young.Sheldon.S05E21.White.Trash.Holy.Rollers.and.Punching.People...

  • Category TV
  • Type HD
  • Language English
  • Total size 1.3 GB
  • Uploaded By TheMorozko
  • Downloads 225
  • Last checked 22 minutes ago
  • Date uploaded 1 week ago
  • Seeders 113
  • Leechers 8

Infohash : 94E5992FB9B7C79DEBA9C377B3E723D9184DDDBD


Screens... (click to enlarge):





Young.Sheldon.S05E21.White.Trash.Holy.Rollers.and.Punching.People.1080p.AMZN.WEBRip.DDP5.1.x264-NTb

Infolink -> https://www.imdb.com/title/tt6226232/

Quote:

Mediainfo
Video
ID : 1
Format : AVC
Format/Info : Advanced Video Codec
Format profile : [email protected]
Format settings : CABAC / 4 Ref Frames
Format settings, CABAC : Yes
Format settings, Reference frames : 4 frames
Codec ID : V_MPEG4/ISO/AVC
Duration : 19 min 17 s
Bit rate mode : Constant
Bit rate : 9 308 kb/s
Nominal bit rate : 10 000 kb/s
Width : 1 920 pixels
Height : 1 080 pixels
Display aspect ratio : 16:9
Frame rate mode : Constant
Frame rate : 23.976 (24000/1001) FPS
Color space : YUV
Chroma subsampling : 4:2:0
Bit depth : 8 bits
Scan type : Progressive
Bits/(Pixel*Frame) : 0.187
Stream size : 1.25 GiB (94%)
Default : Yes
Forced : No
Color range : Limited
Color primaries : BT.709
Transfer characteristics : BT.709
Matrix coefficients : BT.709

Audio
ID : 2
Format : E-AC-3
Format/Info : Enhanced AC-3
Commercial name : Dolby Digital Plus
Codec ID : A_EAC3
Duration : 19 min 17 s
Bit rate mode : Constant
Bit rate : 640 kb/s
Channel(s) : 6 channels
Channel layout : L R C LFE Ls Rs
Sampling rate : 48.0 kHz
Frame rate : 31.250 FPS (1536 SPF)
Compression mode : Lossy
Stream size : 88.3 MiB (6%)
Language : English
Service kind : Complete Main
Default : Yes
Forced : No

Text #1
ID : 3
Format : UTF-8
Codec ID : S_TEXT/UTF8
Codec ID/Info : UTF-8 Plain Text
Duration : 18 min 48 s
Bit rate : 93 b/s
Count of elements : 456
Stream size : 12.9 KiB (0%)
Language : English
Default : No
Forced : No

Text #2
ID : 4
Format : UTF-8
Codec ID : S_TEXT/UTF8
Codec ID/Info : UTF-8 Plain Text
Duration : 18 min 48 s
Bit rate : 97 b/s
Count of elements : 475
Stream size : 13.4 KiB (0%)
Title : SDH
Language : English
Default : No
Forced : No

Files:

Young.Sheldon.S05E21.White.Trash.Holy.Rollers.and.Punching.People.1080p.AMZN.WEBRip.DDP5.1.x264-NTb[rarbg]
  • RARBG.txt (0.0 KB)
  • RARBG_DO_NOT_MIRROR.exe (0.1 KB)
  • Young.Sheldon.S05E21.White.Trash.Holy.Rollers.and.Punching.People.1080p.AMZN.WEB-DL.DDP5.1.H.264-NTb.mkv (1.3 GB)

There are currently no comments. Feel free to leave one :)

Code:

  • http://tracker.trackerfix.com:80/announce
  • udp://9.rarbg.me:2940/announce
  • udp://9.rarbg.to:2810/announce
  • udp://tracker.slowcheetah.org:14760/announce
  • udp://tracker.tallpenguin.org:15770/announce