Sneakerentola.2022.iTA-ENG.WEBDL.2160p.HEVC.HDR.x265-CYBER.mkv

  • Category Movies
  • Type UHD
  • Language English
  • Total size 14.3 GB
  • Uploaded By eXpOrTeRICV
  • Downloads 45
  • Last checked 4 days ago
  • Date uploaded 1 week ago
  • Seeders 6
  • Leechers 2

Infohash : 482710747453B940158611D17CD4C2084824BC51




DATI - TRAMA

USA, 2022
Genere: Musicale
Regia di Elizabeth Allen Rosenbaum
Con Lexi Underwood, Kolton Stewart, Chosen Jacobs, Lovina Yavari, John Salley, Devyn Nekoda, Tara Nicodemo, Yvonne Senat Jones.


Dopo essersi innamorato di Kira King, la figlia della star del basket e magnate delle scarpe da ginnastica Darius, un aspirante designer di sneakers del Queen guadagna fiducia e volontà per perseguire nel suo sogno. Lo aiuterà la migliore amica Sami e il suo "Fata Padrino".

IMMAGINI





REPORT

General
Unique ID : 170569882735367019586020059251881723381 (0x8052908191AAFDAF6C9003279EA6C5F5)
Complete name : E:\Sneakerentola.2022.iTA-ENG.WEBDL.2160p.HEVC.HDR.x265-CYBER.mkv
Format : Matroska
Format version : Version 4
File size : 14.3 GiB
Duration : 1 h 50 min
Overall bit rate : 18.5 Mb/s
Encoded date : UTC 2022-05-13 08:33:33
Writing application : mkvmerge v67.0.0 ('Under Stars') 64-bit
Writing library : libebml v1.4.2 + libmatroska v1.6.4

Video
ID : 1
Format : HEVC
Format/Info : High Efficiency Video Coding
Format profile : Main [email protected]@High
HDR format : SMPTE ST 2086, HDR10 compatible
Codec ID : V_MPEGH/ISO/HEVC
Duration : 1 h 50 min
Bit rate : 16.5 Mb/s
Width : 3 840 pixels
Height : 2 160 pixels
Display aspect ratio : 16:9
Frame rate mode : Constant
Frame rate : 23.976 (24000/1001) FPS
Color space : YUV
Chroma subsampling : 4:2:0
Bit depth : 10 bits
Bits/(Pixel*Frame) : 0.083
Stream size : 12.7 GiB (89%)
Title : 2160p
Language : English
Default : Yes
Forced : No
Color range : Limited
Color primaries : BT.2020
Transfer characteristics : PQ
Matrix coefficients : BT.2020 non-constant
Mastering display color primaries : Display P3
Mastering display luminance : min: 0.0001 cd/m2, max: 1000 cd/m2

Audio #1
ID : 2
Format : E-AC-3
Format/Info : Enhanced AC-3
Commercial name : Dolby Digital Plus
Codec ID : A_EAC3
Duration : 1 h 50 min
Bit rate mode : Constant
Bit rate : 256 kb/s
Channel(s) : 6 channels
Channel layout : L R C LFE Ls Rs
Sampling rate : 48.0 kHz
Frame rate : 31.250 FPS (1536 SPF)
Compression mode : Lossy
Stream size : 203 MiB (1%)
Title : E-AC3
Language : Italian
Service kind : Complete Main
Default : Yes
Forced : Yes

Audio #2
ID : 3
Format : AC-3
Format/Info : Audio Coding 3
Commercial name : Dolby Digital
Codec ID : A_AC3
Duration : 1 h 50 min
Bit rate mode : Constant
Bit rate : 384 kb/s
Channel(s) : 6 channels
Channel layout : L R C LFE Ls Rs
Sampling rate : 48.0 kHz
Frame rate : 31.250 FPS (1536 SPF)
Compression mode : Lossy
Stream size : 304 MiB (2%)
Title : AC3
Language : Italian
Service kind : Complete Main
Default : Yes
Forced : No

Audio #3
ID : 4
Format : E-AC-3 JOC
Format/Info : Enhanced AC-3 with Joint Object Coding
Commercial name : Dolby Digital Plus with Dolby Atmos
Codec ID : A_EAC3
Duration : 1 h 50 min
Bit rate mode : Constant
Bit rate : 768 kb/s
Channel(s) : 6 channels
Channel layout : L R C LFE Ls Rs
Sampling rate : 48.0 kHz
Frame rate : 31.250 FPS (1536 SPF)
Compression mode : Lossy
Stream size : 609 MiB (4%)
Title : E-AC3
Language : English
Service kind : Complete Main
Default : No
Forced : No
Complexity index : 16
Number of dynamic objects : 15
Bed channel count : 1 channel
Bed channel configuration : LFE

Audio #4
ID : 5
Format : AC-3
Format/Info : Audio Coding 3
Commercial name : Dolby Digital
Codec ID : A_AC3
Duration : 1 h 50 min
Bit rate mode : Constant
Bit rate : 640 kb/s
Channel(s) : 6 channels
Channel layout : L R C LFE Ls Rs
Sampling rate : 48.0 kHz
Frame rate : 31.250 FPS (1536 SPF)
Compression mode : Lossy
Stream size : 507 MiB (3%)
Title : AC3
Language : English
Service kind : Complete Main
Default : Yes
Forced : No

Text #1
ID : 6
Format : UTF-8
Codec ID : S_TEXT/UTF8
Codec ID/Info : UTF-8 Plain Text
Duration : 1 h 35 min
Bit rate : 0 b/s
Count of elements : 33
Stream size : 686 Bytes (0%)
Title : Forced
Language : Italian
Default : Yes
Forced : Yes

Text #2
ID : 7
Format : UTF-8
Codec ID : S_TEXT/UTF8
Codec ID/Info : UTF-8 Plain Text
Duration : 1 h 50 min
Bit rate : 85 b/s
Count of elements : 1988
Stream size : 69.0 KiB (0%)
Title : Regular
Language : Italian
Default : No
Forced : No

Text #3
ID : 8
Format : UTF-8
Codec ID : S_TEXT/UTF8
Codec ID/Info : UTF-8 Plain Text
Duration : 1 h 50 min
Bit rate : 108 b/s
Count of elements : 2185
Stream size : 87.7 KiB (0%)
Title : Non Udenti
Language : English
Default : No
Forced : No

GOOD DOWNLOAD

Files:

  • Sneakerentola.2022.iTA-ENG.WEBDL.2160p.HEVC.HDR.x265-CYBER.mkv (14.3 GB)

There are currently no comments. Feel free to leave one :)

Code:

  • udp://tracker.opentrackr.org:1337/announce
  • udp://tracker.torrent.eu.org:451/announce
  • http://tracker.gbitt.info:80/announce
  • udp://open.stealth.si:80/announce
  • http://tracker.bt4g.com:2095/announce
  • udp://tracker.openbittorrent.com:80/announce
  • udp://tracker.tiny-vps.com:6969/announce
  • udp://p4p.arenabg.com:1337/announce
  • udp://explodie.org:6969/announce
  • udp://exodus.desync.com:6969/announce
  • udp://9.rarbg.me:2860/announce
  • udp://9.rarbg.to:2770/announce