Cinderella.2021.BDRip.x264-PiGNUS

  • Category Movies
  • Type h.264/x264
  • Language English
  • Total size 906.6 MB
  • Uploaded By TheMorozko
  • Downloads 58
  • Last checked 4 days ago
  • Date uploaded 1 week ago
  • Seeders 1
  • Leechers 0

Infohash : 3A3B7B40C443E865CE1DFABD83B7F0AC18A6DE77


Screens... :

Screenshots:

Name: Cinderella.2021.BDRip.x264-PiGNUS

Release date: 22-06-2022

IMDB link: https://www.imdb.com/title/tt10155932

Audio: English
Subtitles: English

Resolution: 720x300
Audio: 116 kbps VBR AAC LC
Video: 1000 kbps, CRF 19

Mediainfo

Quote:

Video
ID : 1
Format : AVC
Format/Info : Advanced Video Codec
Format profile : [email protected]
Format settings : CABAC / 5 Ref Frames
Format settings, CABAC : Yes
Format settings, Reference frames : 5 frames
Codec ID : V_MPEG4/ISO/AVC
Duration : 1 h 52 min
Bit rate : 1 000 kb/s
Width : 720 pixels
Height : 300 pixels
Display aspect ratio : 2.40:1
Frame rate mode : Constant
Frame rate : 23.976 (24000/1001) FPS
Color space : YUV
Chroma subsampling : 4:2:0
Bit depth : 8 bits
Scan type : Progressive
Bits/(Pixel*Frame) : 0.193
Stream size : 806 MiB (89%)
Writing library : x264 core 164 r3095 baee400
Encoding settings : cabac=1 / ref=5 / deblock=1:-3:-3 / analyse=0x3:0x113 / me=umh / subme=8 / psy=1 / psy_rd=1.00:0.00 / mixed_ref=1 / me_range=16 / chroma_me=1 / trellis=2 / 8x8dct=1 / cqm=0 / deadzone=21,11 / fast_pskip=1 / chroma_qp_offset=-2 / threads=9 / lookahead_threads=1 / sliced_threads=0 / nr=0 / decimate=1 / interlaced=0 / bluray_compat=0 / constrained_intra=0 / bframes=3 / b_pyramid=2 / b_adapt=1 / b_bias=0 / direct=3 / weightb=1 / open_gop=0 / weightp=2 / keyint=250 / keyint_min=23 / scenecut=40 / intra_refresh=0 / rc_lookahead=50 / rc=crf / mbtree=1 / crf=19.0 / qcomp=0.60 / qpmin=0 / qpmax=69 / qpstep=4 / ip_ratio=1.40 / aq=1:1.00
Default : Yes
Forced : No
Color range : Limited
Matrix coefficients : BT.709

Audio
ID : 2
Format : AAC LC
Format/Info : Advanced Audio Codec Low Complexity
Codec ID : A_AAC-2
Duration : 1 h 52 min
Bit rate : 116 kb/s
Channel(s) : 2 channels
Channel layout : L R
Sampling rate : 48.0 kHz
Frame rate : 46.875 FPS (1024 SPF)
Compression mode : Lossy
Delay relative to video : 9 ms
Stream size : 93.8 MiB (10%)
Language : English
Default : Yes
Forced : No

Menu
00:00:00.000 : en:Chapter 01
00:06:16.710 : en:Chapter 02
00:12:16.235 : en:Chapter 03
00:17:26.254 : en:Chapter 04
00:21:36.879 : en:Chapter 05
00:27:17.553 : en:Chapter 06
00:33:24.753 : en:Chapter 07
00:38:40.568 : en:Chapter 08
00:44:40.177 : en:Chapter 09
00:50:51.340 : en:Chapter 10
00:58:43.061 : en:Chapter 11
01:07:51.609 : en:Chapter 12
01:15:59.513 : en:Chapter 13
01:23:11.570 : en:Chapter 14
01:29:49.009 : en:Chapter 15
01:38:29.570 : en:Chapter 16

Files:

Cinderella.2021.BDRip.x264-PiGNUS[rarbg]
  • RARBG.txt (0.0 KB)
  • RARBG_DO_NOT_MIRROR.exe (0.1 KB)
  • Subs
    • cinderella.2021.bdrip.x264-pignus.idx (80.8 KB)
    • cinderella.2021.bdrip.x264-pignus.sub (4.9 MB)
  • cinderella.2021.bdrip.x264-pignus.mkv (901.6 MB)
  • cinderella.2021.bdrip.x264-pignus.nfo (0.2 KB)

There are currently no comments. Feel free to leave one :)

Code:

  • http://tracker.trackerfix.com:80/announce
  • udp://9.rarbg.me:2930/announce
  • udp://9.rarbg.to:2960/announce
  • udp://tracker.tallpenguin.org:15730/announce
  • udp://tracker.slowcheetah.org:14720/announce