Naked.Truth.2022.VIETNAMESE.ENSUBBED.1080p.WEBRip.AAC2.0.x264-NOG...

  • Category Movies
  • Type HD
  • Language English
  • Total size 2.7 GB
  • Uploaded By TheMorozko
  • Downloads 216
  • Last checked 4 days ago
  • Date uploaded 1 week ago
  • Seeders 6
  • Leechers 1

Bay Ngot Ngao (Naked Truth)

DramaThriller

A poignant story that deftly balances levity and gravity, Bay Ngot Ngao (Naked Truth) revolves around four childhood friends once madly determined to escape singledom. After years apart, they gleefully reunite to celebrate the 3-year marriage anniversary of the lone successor of the group to find marital bliss. Their reunion takes a shocking turn when, layer by layer, concealed lives are revealed, trapping each character in a tangled web of dangerous secrets that threaten to push precarious relationships over the edge. Bay Ngot Ngao (Naked Truth) is about the strength of lifelong friendships, the hidden darkness of domestic abuse, and the power of personal liberation. Directed by Dinh Ha Uyen Thu. Produced by Live On. US release by 3388 Films.

Infohash : 672607851A1AB71A2C460C2AEA90550BDCE6E978


Screens... :





Infolink -> https://www.imdb.com/title/tt14573918/

Mediainfo

Quote:

Video
ID : 1
Format : AVC
Format/Info : Advanced Video Codec
Format profile : [email protected]
Format settings : CABAC / 4 Ref Frames
Format settings, CABAC : Yes
Format settings, Reference frames : 4 frames
Codec ID : V_MPEG4/ISO/AVC
Duration : 1 h 31 min
Bit rate mode : Variable
Bit rate : 4 038 kb/s
Maximum bit rate : 12.0 Mb/s
Width : 1 920 pixels
Height : 804 pixels
Display aspect ratio : 2.40:1
Frame rate mode : Constant
Frame rate : 24.000 FPS
Color space : YUV
Chroma subsampling : 4:2:0
Bit depth : 8 bits
Scan type : Progressive
Bits/(Pixel*Frame) : 0.109
Stream size : 2.57 GiB (95%)
Default : Yes
Forced : No

Audio
ID : 2
Format : AAC LC
Format/Info : Advanced Audio Codec Low Complexity
Codec ID : A_AAC-2
Duration : 1 h 31 min
Bit rate : 192 kb/s
Channel(s) : 2 channels
Channel layout : L R
Sampling rate : 48.0 kHz
Frame rate : 46.875 FPS (1024 SPF)
Compression mode : Lossy
Stream size : 126 MiB (5%)
Language : Vietnamese
Default : Yes
Forced : No

Files:

Naked.Truth.2022.VIETNAMESE.ENSUBBED.1080p.WEBRip.AAC2.0.x264-NOGRP
  • Naked.Truth.2022.VIETNAMESE.1080p.WEBRip.AAC2.0.x264-NOGRP.mkv (2.7 GB)
  • RARBG.txt (0.0 KB)

There are currently no comments. Feel free to leave one :)

Code:

  • http://tracker.trackerfix.com:80/announce
  • udp://9.rarbg.me:2970/announce
  • udp://9.rarbg.to:2830/announce
  • udp://tracker.thinelephant.org:12800/announce
  • udp://tracker.fatkhoala.org:13720/announce