The.Orville.S03E04.1080p.WEB.H264-CAKES

  • Category TV
  • Type HD
  • Language English
  • Total size 2.1 GB
  • Uploaded By TheMorozko
  • Downloads 3496
  • Last checked 1 hour ago
  • Date uploaded 1 week ago
  • Seeders 992
  • Leechers 89

Infohash : 34523100DD78CC4FFABE54C29061F563D8F116CA


Screens... :









The.Orville.S03E04.1080p.WEB.H264-CAKES

Show: The Orville
Title: Gently Falling Rain
Season: 3
Episode: 4
Size: 2200M
Files: 10F
Date: 2022-06-23
Duration: 1 h 5 min

Source: Web
Encoding: H264
Bitrate: 4 629 kb/s
Audio Format: E-AC-3 (Dolby Digital Plus)
Audio Rate: 256 kb/s @ 6 channels
Audio Lang: English
Sub count: 2
Subtitles: English / Spanish

Infolink -> https://www.imdb.com/title/tt5691552/

Quote:

Mediainfo
Video
ID : 1
Format : AVC
Format/Info : Advanced Video Codec
Format profile : [email protected]
Format settings : CABAC / 4 Ref Frames
Format settings, CABAC : Yes
Format settings, Reference frames : 4 frames
Codec ID : V_MPEG4/ISO/AVC
Duration : 1 h 5 min
Bit rate : 4 281 kb/s
Width : 1 920 pixels
Height : 1 080 pixels
Display aspect ratio : 16:9
Frame rate mode : Constant
Frame rate : 23.976 (24000/1001) FPS
Color space : YUV
Chroma subsampling : 4:2:0
Bit depth : 8 bits
Scan type : Progressive
Bits/(Pixel*Frame) : 0.086
Stream size : 1.95 GiB (92%)
Default : Yes
Forced : No

Audio
ID : 2
Format : E-AC-3
Format/Info : Enhanced AC-3
Commercial name : Dolby Digital Plus
Codec ID : A_EAC3
Duration : 1 h 5 min
Bit rate mode : Constant
Bit rate : 256 kb/s
Channel(s) : 6 channels
Channel layout : L R C LFE Ls Rs
Sampling rate : 48.0 kHz
Frame rate : 31.250 FPS (1536 SPF)
Compression mode : Lossy
Stream size : 120 MiB (6%)
Language : English
Service kind : Complete Main
Default : Yes
Forced : No

Text #1
ID : 3
Format : UTF-8
Codec ID : S_TEXT/UTF8
Codec ID/Info : UTF-8 Plain Text
Title : English [SDH]
Language : English
Default : No
Forced : No

Text #2
ID : 4
Format : UTF-8
Codec ID : S_TEXT/UTF8
Codec ID/Info : UTF-8 Plain Text
Title : Spanish [SDH]
Language : Spanish
Default : No
Forced : No

Files:

The.Orville.S03E04.1080p.WEB.H264-CAKES[rarbg]
  • RARBG.txt (0.0 KB)
  • RARBG_DO_NOT_MIRROR.exe (0.1 KB)
  • the.orville.s03e04.1080p.web.h264-cakes.mkv (2.1 GB)
  • the.orville.s03e04.1080p.web.h264-cakes.nfo (0.6 KB)

There are currently no comments. Feel free to leave one :)

Code:

  • http://tracker.trackerfix.com:80/announce
  • udp://9.rarbg.me:2830/announce
  • udp://9.rarbg.to:2720/announce
  • udp://tracker.tallpenguin.org:15710/announce
  • udp://tracker.slowcheetah.org:14730/announce