Rocketry The Nambi Effect (2022) Hindi (1080p WEBRip x265 HEVC 10bit DD 5.1 ESub) - [Musafirboy]

  • CategoryMovies
  • TypeDubs/Dual Audio
  • LanguageHindi
  • Total size2.4 GB
  • Uploaded ByMusafirboy
  • Downloads35
  • Last checkedJul. 29th '22
  • Date uploadedJul. 29th '22
  • Seeders 0
  • Leechers0

Rocketry: The Nambi Effect

Drama

Based by the life of ISRO Scientist Nambi Narayanan who was falsely accused of being a spy and arrested in 1994. Though free, he is still fighting for justice, with those police officials alleged to have falsely implicated him, still free.

Infohash : 7676CD96A5266FD7F8F77E68D8ABDAB421CE3F48




Rocketry (2022) | Hindi

? 1080p Voot WEBRip | HEVC 10Bit | DD 5.1

? Dubbed Audio: Hindi










Source Information


Code:

Release:
Rocketry.(2022).1080p.VOOT.WEBDL.DD5.1.H264-Archie ~ 9.05 GB


Media Information


Code:

General
Unique ID : 168028461504706170285941897062073826179 (0x7E691AC3ED8DAE214A4F7B766A78FB83)
Complete name : Rocketry.(2022).Hindi.1080p.WEBRip.10bit.DD.5.1.HEVC-[Musafirboy].mkv
Format : Matroska
Format version : Version 4
File size : 2.41 GiB
Duration : 2 h 29 min
Overall bit rate : 2302 kb/s
Movie name : Rocketry.(2022).Hindi.1080p.WEBRip.10bit.DD.5.1.HEVC-[Musafirboy]
Encoded date : UTC 2022-07-29 02:54:28
Writing application : [Musafirboy]
Cover : Yes
Attachments : cover.jpg

Video
Format : HEVC
Format/Info : High Efficiency Video Coding
Format profile : Main [email protected]@Main
Codec ID : V_MPEGH/ISO/HEVC
Duration : 2 h 29 min
Bit rate : 1916 kb/s
Width : 1920 pixels
Height : 816 pixels
Display aspect ratio : 2.35:1
Frame rate mode : Constant
Frame rate : 25.000 FPS
Color space : YUV
Chroma subsampling : 4:2:0
Bit depth : 10 bits
Bits/(Pixel*Frame) : 0.049
Stream size : 2.01 GiB (83%)
Title : [Musafirboy]
Default : Yes
Forced : No
Color range : Limited
Color primaries : BT.709
Transfer characteristics : BT.709
Matrix coefficients : BT.709

Audio
Format : AC-3
Format/Info : Audio Coding 3
Commercial name : Dolby Digital
Codec ID : A_AC3
Duration : 2 h 29 min
Bit rate mode : Constant
Bit rate : 384 kb/s
Channel(s) : 6 channels
Channel layout : L R C LFE Ls Rs
Sampling rate : 48.0 kHz
Frame rate : 31.250 FPS (1536 SPF)
Compression mode : Lossy
Stream size : 412 MiB (17%)
Language : Hindi

Subtitle
Format : UTF-8
Codec ID : S_TEXT/UTF8
Codec ID/Info : UTF-8 Plain Text
Duration : 2 h 18 min
Bit rate : 72 b/s
Count of elements : 2198
Stream size : 73.2 KiB (0%)
Language : English





✿
If you are financially able, please consider making a donation

bitcoin address: 3MHSQJWzztF6gv97qzqeoZSadPZ2GziMSX


Files:

Rocketry.(2022).Hindi.1080p.WEBRip.10bit.DD.5.1.HEVC-[Musafirboy]
  • Encoded by Musafirboy.txt (0.4 KB)
  • Musafirboy Official.url (0.0 KB)
  • Rocketry.(2022).Hindi.1080p.WEBRip.10bit.DD.5.1.HEVC-[Musafirboy].mkv (2.4 GB)

Code:

  • udp://tracker.leechers-paradise.org:6969/announce
  • udp://tracker.coppersurfer.tk:6969/announce
  • udp://tracker.opentrackr.org:1337/announce
  • udp://p4p.arenabg.com:1337/announce
  • https://tracker.nanoha.org:443/announce
  • https://tracker.lilithraws.cf:443/announce
  • https://tracker.iriseden.fr:443/announce
  • https://t1.tokhmi.xyz:443/announce
  • http://vps02.net.orel.ru:80/announce
  • http://googer.cc:1337/announce
  • https://tracker.nitrix.me:443/announce
  • https://mytracker.fly.dev:443/announce
  • http://tracker.bt4g.com:2095/announce
  • http://fxtt.ru:80/announce