Jurassic.World.3.Dominion.2022.EXTENDED.1080p.BluRay.H264.AAC

  • CategoryMovies
  • TypeHD
  • LanguageEnglish
  • Total size3.1 GB
  • Uploaded ByTheMorozko
  • Downloads261
  • Last checkedJul. 31st '22
  • Date uploadedJul. 31st '22
  • Seeders 390
  • Leechers381

Jurassic World Dominion

Science Fiction Action Adventure Thriller

Four years after Isla Nublar was destroyed, dinosaurs now live—and hunt—alongside humans all over the world. This fragile balance will reshape the future and determine, once and for all, whether human beings are to remain the apex predators on a planet they now share with history’s most fearsome creatures.

Infohash : B3F147186004A2B713C8ACCA98086CA160962F48

Screens... :





Infolink -> https://www.imdb.com/title/tt8041270/

Mediainfo

Quote:

Video
ID : 1
Format : AVC
Format/Info : Advanced Video Codec
Format profile : [email protected]
Format settings : CABAC / 4 Ref Frames
Format settings, CABAC : Yes
Format settings, Reference frames : 4 frames
Codec ID : avc1
Codec ID/Info : Advanced Video Coding
Duration : 2 h 40 min
Bit rate : 2 500 kb/s
Width : 1 920 pixels
Height : 960 pixels
Display aspect ratio : 2.000
Frame rate mode : Constant
Frame rate : 23.976 (23976/1000) FPS
Color space : YUV
Chroma subsampling : 4:2:0
Bit depth : 8 bits
Scan type : Progressive
Bits/(Pixel*Frame) : 0.057
Stream size : 2.80 GiB (92%)
Writing library : x264 core 152 r2851M ba24899
Encoding settings : cabac=1 / ref=4 / deblock=1:-1:-1 / analyse=0x3:0x113 / me=umh / subme=9 / psy=1 / psy_rd=1.00:0.15 / mixed_ref=1 / me_range=24 / chroma_me=1 / trellis=2 / 8x8dct=1 / cqm=0 / deadzone=21,11 / fast_pskip=1 / chroma_qp_offset=-3 / threads=32 / lookahead_threads=4 / sliced_threads=0 / nr=0 / decimate=1 / interlaced=0 / bluray_compat=0 / constrained_intra=0 / bframes=3 / b_pyramid=2 / b_adapt=2 / b_bias=0 / direct=3 / weightb=1 / open_gop=0 / weightp=2 / keyint=250 / keyint_min=25 / scenecut=40 / intra_refresh=0 / rc_lookahead=50 / rc=2pass / mbtree=1 / bitrate=2500 / ratetol=1.0 / qcomp=0.60 / qpmin=0 / qpmax=69 / qpstep=4 / cplxblur=20.0 / qblur=0.5 / vbv_maxrate=31250 / vbv_bufsize=31250 / nal_hrd=none / filler=0 / ip_ratio=1.40 / aq=3:1.00
Encoded date : UTC 2022-07-31 12:51:16
Tagged date : UTC 2022-07-31 12:51:16
Codec configuration box : avcC

Audio
ID : 2
Format : AAC LC
Format/Info : Advanced Audio Codec Low Complexity
Codec ID : mp4a-40-2
Duration : 2 h 40 min
Bit rate mode : Constant
Bit rate : 224 kb/s
Channel(s) : 6 channels
Channel layout : C L R Ls Rs LFE
Sampling rate : 48.0 kHz
Frame rate : 46.875 FPS (1024 SPF)
Compression mode : Lossy
Stream size : 257 MiB (8%)
Language : English
Default : Yes
Alternate group : 1
Encoded date : UTC 2022-07-31 12:51:16
Tagged date : UTC 2022-07-31 12:51:16

Files:

Jurassic.World.3.Dominion.2022.EXTENDED.1080p.BluRay.H264.AAC-RARBG
  • Jurassic.World.3.Dominion.2022.EXTENDED.1080p.BluRay.H264.AAC-RARBG.mp4 (3.1 GB)
  • RARBG.txt (0.0 KB)
  • RARBG_DO_NOT_MIRROR.exe (0.1 KB)
  • Subs
    • 2_English.srt (111.0 KB)
    • 3_English.srt (132.5 KB)

Code:

  • http://tracker.trackerfix.com:80/announce
  • udp://9.rarbg.me:2750/announce
  • udp://9.rarbg.to:2760/announce
  • udp://tracker.thinelephant.org:12740/announce
  • udp://tracker.tallpenguin.org:15750/announce