HIT.The.First.Case.2022.720p.NF.WebRip.Hindi.AAC5.1.x264-themoviesboss

  • CategoryMovies
  • TypeBollywood
  • LanguageHindi
  • Total size960 MB
  • Uploaded Bytmb001
  • Downloads260
  • Last checkedAug. 28th '22
  • Date uploadedAug. 28th '22
  • Seeders 28
  • Leechers70

Hit: The First Case

Crime Thriller Mystery

Burdened by old demons, a troubled but brilliant detective sets out to solve two confounding abduction cases — one involving his own girlfriend.

Infohash : B93D076666E78C87E6EA3938519E8276C1AC6C2A



HIT.The.First.Case.2022.720p.NF.WebRip.Hindi.AAC5.1.x264-themoviesboss



Media Info



Format : Matroska
Format version : Version 4
File size : 960 MiB
Duration : 2 h 12 min
Overall bit rate : 1 015 kb/s
Encoded date : UTC 2022-08-27 19:11:21
Writing application : mkvmerge
Writing library : libebml v1.4.2 + libmatroska v1.6.4

Video
ID : 1
Format : AVC
Format/Info : Advanced Video Codec
Format profile : [email protected]
Format settings : CABAC / 4 Ref Frames
Format settings, CABAC : Yes
Format settings, Reference frames : 4 frames
Codec ID : V_MPEG4/ISO/AVC
Duration : 2 h 12 min
Bit rate : 820 kb/s
Width : 1 280 pixels
Height : 532 pixels
Display aspect ratio : 2.40:1
Frame rate mode : Constant
Frame rate : 24.000 FPS
Color space : YUV
Chroma subsampling : 4:2:0
Bit depth : 8 bits
Scan type : Progressive
Bits/(Pixel*Frame) : 0.050
Stream size : 776 MiB (81%)
Title : themoviesboss
Writing library : x264 core 164 r3065 ae03d92
Default : Yes
Forced : No
Color range : Limited
Color primaries : BT.709
Transfer characteristics : BT.709
Matrix coefficients : BT.709

Audio
ID : 2
Format : AAC LC
Format/Info : Advanced Audio Codec Low Complexity
Codec ID : A_AAC-2
Duration : 2 h 12 min
Bit rate : 192 kb/s
Channel(s) : 6 channels
Channel layout : C L R Ls Rs LFE
Sampling rate : 48.0 kHz
Frame rate : 46.875 FPS (1024 SPF)
Compression mode : Lossy
Delay relative to video : -21 ms
Stream size : 182 MiB (19%)
Title : themoviesboss
Language : Hindi
Default : Yes
Forced : No

Text #1
ID : 3
Format : UTF-8
Codec ID : S_TEXT/UTF8
Codec ID/Info : UTF-8 Plain Text
Duration : 2 h 6 min
Bit rate : 60 b/s
Frame rate : 0.244 FPS
Count of elements : 1851
Stream size : 56.3 KiB (0%)
Title : themoviesboss
Language : English
Default : No
Forced : No

Text #2
ID : 4
Format : UTF-8
Codec ID : S_TEXT/UTF8
Codec ID/Info : UTF-8 Plain Text
Duration : 2 h 6 min
Bit rate : 60 b/s
Frame rate : 0.244 FPS
Count of elements : 1851
Stream size : 56.3 KiB (0%)
Title : themoviesboss
Language : English
Default : No
Forced : No



Screenshots













Don't Forget to Seed After Download


Files:

  • HIT.The.First.Case.2022.720p.NF.WebRip.AAC5.1.x264-themoviesboss.mkv (960.0 MB)

Code:

  • udp://tracker.tiny-vps.com:6969/announce
  • udp://fasttracker.foreverpirates.co:6969/announce
  • udp://tracker.opentrackr.org:1337/announce
  • udp://explodie.org:6969/announce
  • udp://open.stealth.si:80/announce
  • udp://tracker.cyberia.is:6969/announce
  • udp://ipv4.tracker.harry.lu:80/announce
  • udp://tracker.uw0.xyz:6969/announce
  • udp://tracker.dler.org:6969/announce
  • udp://9.rarbg.to:2710/announce
  • udp://open.demonii.com:1337/announce
  • udp://zecircle.xyz:6969/announce
  • udp://tracker.leech.ie:1337/announce
  • udp://tracker.pomf.se:80/announce
  • udp://run-2.publictracker.xyz:6969/announce