Sita Ramam (2022) DUAL (Hindi+Telugu) DS4K (1080p AMZN WEBRip x265 HEVC 10bit DDP 5.1 ESub) - [Musafirboy]

  • CategoryMovies
  • TypeDubs/Dual Audio
  • LanguageHindi
  • Total size4.4 GB
  • Uploaded ByMusafirboy
  • Downloads687
  • Last checkedSep. 09th '22
  • Date uploadedSep. 09th '22
  • Seeders 80
  • Leechers150

Sita Ramam

Romance Drama

A long-lost letter must find its way to the recipient twenty years later. A rabble-rouser learns a lesson in humility and love along the way.

Infohash : CD3E61A8B432E505732F9A6FC8A3F71B0316B5AD




Sita Ramam (2022) | DUAL | Hindi+Telugu

?1080p WEBRip | DS4K | HEVC 10Bit | DDP 5.1

? Dubbed Audio: Hindi | Original Audio: Telugu










? Hindi Audio is Cleaned CAM Audio, Synced by ARYA




Media Information


Code:

General
Unique ID : 105073131140292856962492570331798239233 (0x4F0C595588240D7CEC86657A1682F801)
Complete name : Sita.Ramam.(2022).DUAL.1080p.DS4K.WEBRip.10bit.DDP.5.1.HEVC-[Musafirboy].mkv
Format : Matroska
Format version : Version 4
File size : 4.43 GiB
Duration : 2 h 38 min
Overall bit rate : 4001 kb/s
Movie name : Sita.Ramam.(2022).DUAL.1080p.DS4K.WEBRip.10bit.DDP.5.1.HEVC-[Musafirboy]
Encoded date : UTC 2022-09-09 03:30:58
Writing application : [Musafirboy]
Cover : Yes
Attachments : cover.jpg

Video
Format : HEVC
Format/Info : High Efficiency Video Coding
Format profile : Main [email protected]@High
Codec ID : V_MPEGH/ISO/HEVC
Duration : 2 h 38 min
Bit rate : 3423 kb/s
Width : 1920 pixels
Height : 804 pixels
Display aspect ratio : 2.40:1
Frame rate mode : Constant
Frame rate : 24.000 FPS
Color space : YUV
Chroma subsampling : 4:2:0
Bit depth : 10 bits
Bits/(Pixel*Frame) : 0.092
Stream size : 3.79 GiB (86%)
Title : [Musafirboy]
Default : Yes
Forced : No
Color range : Limited
Color primaries : BT.709
Transfer characteristics : BT.709
Matrix coefficients : BT.709

Audio #1
Format : AC-3
Format/Info : Audio Coding 3
Commercial name : Dolby Digital
Codec ID : A_AC3
Duration : 2 h 38 min
Bit rate mode : Constant
Bit rate : 192 kb/s
Channel(s) : 2 channels
Channel layout : L R
Sampling rate : 48.0 kHz
Frame rate : 31.250 FPS (1536 SPF)
Compression mode : Lossy
Stream size : 217 MiB (5%)
Title : CAM Cleaned Audio
Language : Hindi

Audio #2
Format : E-AC-3
Format/Info : Enhanced AC-3
Commercial name : Dolby Digital Plus
Codec ID : A_EAC3
Duration : 2 h 38 min
Bit rate mode : Constant
Bit rate : 384 kb/s
Channel(s) : 6 channels
Channel layout : L R C LFE Ls Rs
Sampling rate : 48.0 kHz
Frame rate : 31.250 FPS (1536 SPF)
Compression mode : Lossy
Stream size : 435 MiB (10%)
Title : DDP 5.1 ~ AMZN
Language : Telugu

Subtitle
Format : UTF-8
Codec ID : S_TEXT/UTF8
Codec ID/Info : UTF-8 Plain Text
Duration : 2 h 34 min
Bit rate : 69 b/s
Count of elements : 2683
Stream size : 78.4 KiB (0%)
Title : English
Language : English
Default : Yes
Forced : No


Source Information


Code:

2160p AMZN WEB-DL







✿
If you are financially able, please consider making a donation

bitcoin address: 3MHSQJWzztF6gv97qzqeoZSadPZ2GziMSX


Files:

Sita.Ramam.(2022).DUAL.1080p.DS4K.WEBRip.10bit.DDP.5.1.HEVC-[Musafirboy]
  • Encoded by Musafirboy.txt (0.4 KB)
  • MusafirBox Plex Streaming.url (0.0 KB)
  • Musafirboy Official.url (0.0 KB)
  • Sita.Ramam.(2022).DUAL.1080p.DS4K.WEBRip.10bit.DDP.5.1.HEVC-[Musafirboy].mkv (4.4 GB)

Code:

  • udp://tracker.leechers-paradise.org:6969/announce
  • udp://tracker.coppersurfer.tk:6969/announce
  • udp://tracker.opentrackr.org:1337/announce
  • udp://p4p.arenabg.com:1337/announce
  • https://tracker.nanoha.org:443/announce
  • https://tracker.lilithraws.cf:443/announce
  • https://tracker.iriseden.fr:443/announce
  • https://t1.tokhmi.xyz:443/announce
  • http://vps02.net.orel.ru:80/announce
  • http://googer.cc:1337/announce
  • https://tracker.nitrix.me:443/announce
  • https://mytracker.fly.dev:443/announce
  • http://tracker.bt4g.com:2095/announce
  • http://fxtt.ru:80/announce