Sita.Ramam.(2022).720p.10Bit.HEVC.AMZN.WebRip.HQ-Hindi-Cleaned.AAC.H.265-themoviesboss

  • CategoryMovies
  • TypeBollywood
  • LanguageHindi
  • Total size864.8 MB
  • Uploaded Bytmb001
  • Downloads673
  • Last checkedSep. 09th '22
  • Date uploadedSep. 09th '22
  • Seeders 74
  • Leechers68

Sita Ramam

Romance Drama

A long-lost letter must find its way to the recipient twenty years later. A rabble-rouser learns a lesson in humility and love along the way.

Infohash : 9973598E718E632ABDC89A3180AB929F7AB2081B



Sita.Ramam.(2022).720p.10Bit.HEVC.AMZN.WebRip.HQ-Hindi-Cleaned.AAC2.0.H.265-themoviesboss



Media Info



Format                                   : Matroska
Format version                           : Version 4
File size                                : 865 MiB
Duration                                 : 2 h 38 min
Overall bit rate                         : 763 kb/s
Encoded date                             : UTC 2022-09-09 03:25:08
Writing application                      : mkvmerge
Writing library                          : libebml v1.4.2 + libmatroska v1.6.4 / Lavf58.76.100

Video
ID                                       : 1
Format                                   : HEVC
Format/Info                              : High Efficiency Video Coding
Format profile                           : Main [email protected]@Main
Codec ID                                 : V_MPEGH/ISO/HEVC
Duration                                 : 2 h 38 min
Bit rate                                 : 696 kb/s
Width                                    : 1 280 pixels
Height                                   : 536 pixels
Display aspect ratio                     : 2.40:1
Frame rate mode                          : Constant
Frame rate                               : 24.000 FPS
Color space                              : YUV
Chroma subsampling                       : 4:2:0 (Type 0)
Bit depth                                : 10 bits
Bits/(Pixel*Frame)                       : 0.042
Stream size                              : 788 MiB (91%)
Writing library                          : x265 3.5+1-f0c1022b6:[Windows][GCC 10.2.0][64 bit] 10bit
Default                                  : Yes
Forced                                   : No
Color range                              : Limited
Color primaries                          : BT.709
Transfer characteristics                 : BT.709
Matrix coefficients                      : BT.709

Audio
ID                                       : 2
Format                                   : AAC LC
Format/Info                              : Advanced Audio Codec Low Complexity
Codec ID                                 : A_AAC-2
Duration                                 : 2 h 38 min
Bit rate                                 : 64.5 kb/s
Channel(s)                               : 2 channels
Channel layout                           : L R
Sampling rate                            : 44.1 kHz
Frame rate                               : 43.066 FPS (1024 SPF)
Compression mode                         : Lossy
Delay relative to video                  : -21 ms
Stream size                              : 73.0 MiB (8%)
Title                                    : themoviesboss
Language                                 : Hindi
Default                                  : Yes
Forced                                   : No

Text #1
ID                                       : 3
Format                                   : ASS
Codec ID                                 : S_TEXT/ASS
Codec ID/Info                            : Advanced Sub Station Alpha
Duration                                 : 30 s 200 ms
Bit rate                                 : 36 b/s
Frame rate                               : 0.033 FPS
Count of elements                        : 1
Compression mode                         : Lossless
Stream size                              : 139 Bytes (0%)
Title                                    : TheMoviesBoss
Language                                 : English
Default                                  : No
Forced                                   : No

Text #2
ID                                       : 4
Format                                   : ASS
Codec ID                                 : S_TEXT/ASS
Codec ID/Info                            : Advanced Sub Station Alpha
Duration                                 : 2 h 34 min
Bit rate                                 : 121 b/s
Frame rate                               : 0.289 FPS
Count of elements                        : 2683
Compression mode                         : Lossless
Stream size                              : 138 KiB (0%)
Title                                    : themoviesboss[Full]
Language                                 : English
Default                                  : Yes
Forced                                   : Yes



Screenshots














Don't Forget to Seed After Download


Files:

  • TheMoviesBoss - Sita.Ramam.(2022).720p.10Bit.HEVC.AMZN.WebRip.HQ-Hindi-Cleaned.AAC2.0.H.265-themoviesboss.mkv (864.8 MB)

Code:

  • udp://tracker.tiny-vps.com:6969/announce
  • udp://fasttracker.foreverpirates.co:6969/announce
  • udp://tracker.opentrackr.org:1337/announce
  • udp://explodie.org:6969/announce
  • udp://open.stealth.si:80/announce
  • udp://tracker.cyberia.is:6969/announce
  • udp://ipv4.tracker.harry.lu:80/announce
  • udp://tracker.uw0.xyz:6969/announce
  • udp://tracker.dler.org:6969/announce
  • udp://9.rarbg.to:2710/announce
  • udp://open.demonii.com:1337/announce
  • udp://zecircle.xyz:6969/announce
  • udp://tracker.leech.ie:1337/announce
  • udp://tracker.pomf.se:80/announce
  • udp://run-2.publictracker.xyz:6969/announce