She-Hulk.Attorney.at.Law.S01E05.1080p.DSNP.WEBRip.DDP5.1.x264-NTb

  • CategoryTV
  • TypeHD
  • LanguageEnglish
  • Total size1.2 GB
  • Uploaded Byprudence25
  • Downloads451
  • Last checkedSep. 15th '22
  • Date uploadedSep. 15th '22
  • Seeders 3351
  • Leechers549

Infohash : 8E857149FE44B4C23964556F32F36A331F6FC35E



Code:

Video
ID : 1
Format : AVC
Format/Info : Advanced Video Codec
Format profile : [email protected]
Format settings : CABAC / 4 Ref Frames
Format settings, CABAC : Yes
Format settings, Reference frames : 4 frames
Codec ID : V_MPEG4/ISO/AVC
Duration : 28 min 49 s
Bit rate mode : Variable
Bit rate : 5 263 kb/s
Maximum bit rate : 12.7 Mb/s
Width : 1 920 pixels
Height : 1 080 pixels
Display aspect ratio : 16:9
Frame rate mode : Constant
Frame rate : 24.000 FPS
Color space : YUV
Chroma subsampling : 4:2:0
Bit depth : 8 bits
Scan type : Progressive
Bits/(Pixel*Frame) : 0.106
Stream size : 1.06 GiB (87%)
Default : Yes
Forced : No
Color range : Limited
Color primaries : BT.709
Transfer characteristics : BT.709
Matrix coefficients : BT.709

Audio
ID : 2
Format : E-AC-3 JOC
Format/Info : Enhanced AC-3 with Joint Object Coding
Commercial name : Dolby Digital Plus with Dolby Atmos
Codec ID : A_EAC3
Duration : 28 min 49 s
Bit rate mode : Constant
Bit rate : 768 kb/s
Channel(s) : 6 channels
Channel layout : L R C LFE Ls Rs
Sampling rate : 48.0 kHz
Frame rate : 31.250 FPS (1536 SPF)
Compression mode : Lossy
Stream size : 158 MiB (13%)
Language : English
Service kind : Complete Main
Default : Yes
Forced : No
Complexity index : 16
Number of dynamic objects : 15
Bed channel count : 1 channel
Bed channel configuration : LFE

Text #1
ID : 3
Format : UTF-8
Codec ID : S_TEXT/UTF8
Codec ID/Info : UTF-8 Plain Text
Duration : 24 min 18 s
Bit rate : 91 b/s
Count of elements : 429
Stream size : 16.3 KiB (0%)
Language : English
Default : No
Forced : No

Text #2
ID : 4
Format : UTF-8
Codec ID : S_TEXT/UTF8
Codec ID/Info : UTF-8 Plain Text
Duration : 24 min 18 s
Bit rate : 94 b/s
Count of elements : 442
Stream size : 16.9 KiB (0%)
Title : SDH
Language : English
Default : No
Forced : No

Files:

She-Hulk.Attorney.at.Law.S01E05.1080p.DSNP.WEBRip.DDP5.1.x264-NTb[rarbg]
  • RARBG.txt (0.0 KB)
  • RARBG_DO_NOT_MIRROR.exe (0.1 KB)
  • She-Hulk.Attorney.at.Law.S01E05.Mean.Green.and.Straight.Poured.into.These.Jeans.1080p.DSNP.WEB-DL.DDP5.1.H.264-NTb.mkv (1.2 GB)

Code:

  • http://tracker.trackerfix.com:80/announce
  • udp://9.rarbg.me:2850/announce
  • udp://9.rarbg.to:2980/announce
  • udp://tracker.thinelephant.org:12790/announce
  • udp://tracker.slowcheetah.org:14720/announce