Do.Revenge.2022.1080p.10Bit.HEVC.NF.WEBRip.Hindi.English.DD5.1.x265-themoviesboss

  • CategoryMovies
  • TypeDubs/Dual Audio
  • LanguageHindi
  • Total size1.8 GB
  • Uploaded Bytmb001
  • Downloads161
  • Last checkedSep. 16th '22
  • Date uploadedSep. 16th '22
  • Seeders 23
  • Leechers40

Do Revenge

Comedy

A dethroned queen bee at a posh private high school strikes a secret deal with an unassuming new student to enact revenge on one another’s enemies.

Infohash : 5B72A285F7542E5D1E0E4B562B20C2664D7BFB28



Do.Revenge.2022.1080p.10Bit.HEVC.NF.WEBRip.Hindi.English.DD5.1.x265-themoviesboss



Media Info



Format : Matroska
Format version : Version 4
File size : 1.77 GiB
Duration : 2 h 0 min
Overall bit rate : 2 096 kb/s
Encoded date : UTC 2022-09-16 09:16:52
Writing application : HandBrake 1.5.1 2022011000
Writing library : Lavf58.76.100
ErrorDetectionType : Per level 1

Video
ID : 1
Format : HEVC
Format/Info : High Efficiency Video Coding
Format profile : Main [email protected]@High
Codec ID : V_MPEGH/ISO/HEVC
Duration : 2 h 0 min
Bit rate : 1 606 kb/s
Width : 1 920 pixels
Height : 804 pixels
Display aspect ratio : 2.40:1
Frame rate mode : Constant
Frame rate : 24.000 FPS
Color space : YUV
Chroma subsampling : 4:2:0 (Type 0)
Bit depth : 10 bits
Bits/(Pixel*Frame) : 0.043
Stream size : 1.36 GiB (77%)
Writing library : x265 3.5+1-f0c1022b6:[Windows][GCC 10.2.0][64 bit] 10bit
Default : Yes
Forced : No
Color range : Limited
Color primaries : BT.709
Transfer characteristics : BT.709
Matrix coefficients : BT.709

Audio #1
ID : 2
Format : AC-3
Format/Info : Audio Coding 3
Commercial name : Dolby Digital
Codec ID : A_AC3
Duration : 2 h 0 min
Bit rate mode : Constant
Bit rate : 224 kb/s
Channel(s) : 6 channels
Channel layout : L R C LFE Ls Rs
Sampling rate : 48.0 kHz
Frame rate : 31.250 FPS (1536 SPF)
Compression mode : Lossy
Delay relative to video : -5 ms
Stream size : 194 MiB (11%)
Title : themoviesboss [Hindi]
Language : Hindi
Service kind : Complete Main
Default : Yes
Forced : No

Audio #2
ID : 3
Format : AC-3
Format/Info : Audio Coding 3
Commercial name : Dolby Digital
Codec ID : A_AC3
Duration : 2 h 0 min
Bit rate mode : Constant
Bit rate : 224 kb/s
Channel(s) : 2 channels
Channel layout : L R
Sampling rate : 48.0 kHz
Frame rate : 31.250 FPS (1536 SPF)
Compression mode : Lossy
Delay relative to video : -5 ms
Stream size : 194 MiB (11%)
Title : themoviesboss [English]
Language : English
Service kind : Complete Main
Default : No
Forced : No

Text #1
ID : 4
Format : ASS
Codec ID : S_TEXT/ASS
Codec ID/Info : Advanced Sub Station Alpha
Duration : 1 h 59 min
Compression mode : Lossless
Title : themoviesboss [English]
Language : English
Default : No
Forced : No

Text #2
ID : 5
Format : ASS
Codec ID : S_TEXT/ASS
Codec ID/Info : Advanced Sub Station Alpha
Duration : 1 h 59 min
Compression mode : Lossless
Title : themoviesboss [English (India)]
Language : English
Default : No
Forced : No



Screenshots:












Dont't Forget to Seed After Downloaded


Files:

  • Do.Revenge.2022.1080p.10Bit.HEVC.NF.WEBRip.DD5.1.x265-themoviesboss.mkv (1.8 GB)

Code:

  • udp://tracker.tiny-vps.com:6969/announce
  • udp://fasttracker.foreverpirates.co:6969/announce
  • udp://tracker.opentrackr.org:1337/announce
  • udp://explodie.org:6969/announce
  • udp://open.stealth.si:80/announce
  • udp://tracker.cyberia.is:6969/announce
  • udp://ipv4.tracker.harry.lu:80/announce
  • udp://tracker.uw0.xyz:6969/announce
  • udp://tracker.dler.org:6969/announce
  • udp://9.rarbg.to:2710/announce
  • udp://open.demonii.com:1337/announce
  • udp://zecircle.xyz:6969/announce
  • udp://tracker.leech.ie:1337/announce
  • udp://tracker.pomf.se:80/announce
  • udp://run-2.publictracker.xyz:6969/announce