Do.Revenge.2022.720p.NF.WEB-DL.Hindi.English.DDP5.1.x264-themoviesboss

  • CategoryMovies
  • TypeDubs/Dual Audio
  • LanguageHindi
  • Total size885.3 MB
  • Uploaded Bytmb001
  • Downloads345
  • Last checkedSep. 16th '22
  • Date uploadedSep. 16th '22
  • Seeders 36
  • Leechers61

Do Revenge

Comedy

A dethroned queen bee at a posh private high school strikes a secret deal with an unassuming new student to enact revenge on one another’s enemies.

Infohash : 3D07D6100EB6DE270CFA59F5F8B908B766DFA50C



Do.Revenge.2022.720p.NF.WEB-DL.Hindi.English.DDP5.1.x264-themoviesboss



Media Info



Format : Matroska
Format version : Version 4
File size : 885 MiB
Duration : 2 h 0 min
Overall bit rate mode : Variable
Overall bit rate : 1 025 kb/s
Encoded date : UTC 2022-09-16 07:12:20
Writing application : mkvmerge
Writing library : libebml v1.3.10 + libmatroska v1.5.2

Video
ID : 1
Format : AVC
Format/Info : Advanced Video Codec
Format profile : [email protected]
Format settings : CABAC / 4 Ref Frames
Format settings, CABAC : Yes
Format settings, Reference frames : 4 frames
Codec ID : V_MPEG4/ISO/AVC
Duration : 2 h 0 min
Bit rate mode : Variable
Bit rate : 697 kb/s
Maximum bit rate : 14.0 Mb/s
Width : 1 280 pixels
Height : 720 pixels
Display aspect ratio : 16:9
Frame rate mode : Constant
Frame rate : 24.000 FPS
Color space : YUV
Chroma subsampling : 4:2:0
Bit depth : 8 bits
Scan type : Progressive
Bits/(Pixel*Frame) : 0.032
Stream size : 603 MiB (68%)
Writing library : x264 core 148 r2727 7d026e8
Default : Yes
Forced : No

Audio #1
ID : 2
Format : E-AC-3
Format/Info : Enhanced AC-3
Commercial name : Dolby Digital Plus
Codec ID : A_EAC3
Duration : 2 h 0 min
Bit rate mode : Constant
Bit rate : 192 kb/s
Channel(s) : 6 channels
Channel layout : L R C LFE Ls Rs
Sampling rate : 48.0 kHz
Frame rate : 31.250 FPS (1536 SPF)
Compression mode : Lossy
Stream size : 166 MiB (19%)
Title : themoviesboss [Hindi]
Language : Hindi
Service kind : Complete Main
Default : No
Forced : No

Audio #2
ID : 3
Format : E-AC-3
Format/Info : Enhanced AC-3
Commercial name : Dolby Digital Plus
Codec ID : A_EAC3
Duration : 2 h 0 min
Bit rate mode : Constant
Bit rate : 128 kb/s
Channel(s) : 2 channels
Channel layout : L R
Sampling rate : 48.0 kHz
Frame rate : 31.250 FPS (1536 SPF)
Compression mode : Lossy
Stream size : 111 MiB (12%)
Title : themoviesboss [English]
Language : English
Service kind : Complete Main
Default : No
Forced : No

Text #1
ID : 4
Format : UTF-8
Codec ID : S_TEXT/UTF8
Codec ID/Info : UTF-8 Plain Text
Duration : 1 h 58 min
Bit rate : 116 b/s
Frame rate : 0.324 FPS
Count of elements : 2309
Stream size : 102 KiB (0%)
Title : themoviesboss [English]
Language : English
Default : No
Forced : No

Text #2
ID : 5
Format : UTF-8
Codec ID : S_TEXT/UTF8
Codec ID/Info : UTF-8 Plain Text
Duration : 1 h 58 min
Bit rate : 116 b/s
Frame rate : 0.324 FPS
Count of elements : 2309
Stream size : 102 KiB (0%)
Title : themoviesboss [English (India)]
Language : English
Default : No
Forced : No



Screenshots:












Dont't Forget to Seed After Downloaded


Files:

  • Do.Revenge.2022.720p.NF.WEB-DL.DDP5.1.x264-themoviesboss.mkv (885.3 MB)

Code:

  • udp://tracker.tiny-vps.com:6969/announce
  • udp://fasttracker.foreverpirates.co:6969/announce
  • udp://tracker.opentrackr.org:1337/announce
  • udp://explodie.org:6969/announce
  • udp://open.stealth.si:80/announce
  • udp://tracker.cyberia.is:6969/announce
  • udp://ipv4.tracker.harry.lu:80/announce
  • udp://tracker.uw0.xyz:6969/announce
  • udp://tracker.dler.org:6969/announce
  • udp://9.rarbg.to:2710/announce
  • udp://open.demonii.com:1337/announce
  • udp://zecircle.xyz:6969/announce
  • udp://tracker.leech.ie:1337/announce
  • udp://tracker.pomf.se:80/announce
  • udp://run-2.publictracker.xyz:6969/announce