Timepass 3 Marathi 2022 WebRip 1080p x264 AAC ESubs [TMB]

  • CategoryMovies
  • TypeHD
  • LanguageMarathi
  • Total size2.1 GB
  • Uploaded ByTeamTMB
  • Downloads127
  • Last checkedSep. 19th '22
  • Date uploadedSep. 19th '22
  • Seeders 12
  • Leechers8

Infohash : 0BA7FCA25C12077A323828D778999DB448667151

[center]





































General
Complete name : Timepass 3 Marathi 2022 WebRip 1080p x264 AAC ESubs [TMB].mp4
Format : MPEG-4
Format profile : Base Media / Version 2
Codec ID : mp42 (mp42/iso2/avc1/mp41)
File size : 2.12 GiB
Duration : 2 h 20 min
Overall bit rate mode : Variable
Overall bit rate : 2 157 kb/s

Video
Format : AVC
Format/Info : Advanced Video Codec
Format profile : [email protected]
Format settings : CABAC / 4 Ref Frames
Format settings, CABAC : Yes
Format settings, Reference : 4 frames
Codec ID : avc1
Codec ID/Info : Advanced Video Coding
Duration : 2 h 20 min
Source duration : 2 h 20 min
Bit rate : 2 087 kb/s
Width : 1 920 pixels
Height : 804 pixels
Display aspect ratio : 2.40:1
Frame rate mode : Variable
Frame rate : 25.000 FPS
Minimum frame rate : 14.286 FPS
Maximum frame rate : 25.000 FPS
Color space : YUV
Chroma subsampling : 4:2:0
Bit depth : 8 bits
Scan type : Progressive
Bits/(Pixel*Frame) : 0.054
Stream size : 2.05 GiB (97%)

Audio
Format : AAC LC
Format/Info : Advanced Audio Codec Low Complexity
Codec ID : mp4a-40-2
Duration : 2 h 20 min
Bit rate mode : Constant
Bit rate : 64.0 kb/s
Channel(s) : 2 channels
Channel layout : L R
Sampling rate : 48.0 kHz
Frame rate : 46.875 FPS (1024 SPF)
Compression mode : Lossy
Stream size : 64.4 MiB (3%)

Text
Format : Timed Text
Muxing mode : sbtl
Codec ID : tx3g
Duration : 2 h 17 min
Bit rate mode : Variable
Bit rate : 91 b/s
Frame rate : 0.462 FPS
Stream size : 91.6 KiB (0%)



Source 1080p Web-DL by Telly

Rip & Uploaded & Shared by TMB

Seeding 24x7... Extreme Seeding...


Enjoy!




Files:

Timepass 3 Marathi 2022 WebRip 1080p x264 AAC ESubs [TMB]
  • Timepass 3 Marathi 2022 WebRip 1080p x264 AAC ESubs [TMB].mp4 (2.1 GB)
  • Timepass 3 Marathi 2022 WebRip 1080p x264 AAC ESubs [TMB] Sample.mp4 (15.5 MB)

Code:

  • udp://tracker.tiny-vps.com:6969/announce
  • udp://fasttracker.foreverpirates.co:6969/announce
  • udp://tracker.opentrackr.org:1337/announce
  • udp://explodie.org:6969/announce
  • udp://open.stealth.si:80/announce
  • udp://tracker.cyberia.is:6969/announce
  • udp://ipv4.tracker.harry.lu:80/announce
  • udp://tracker.uw0.xyz:6969/announce
  • udp://tracker.dler.org:6969/announce
  • udp://9.rarbg.to:2710/announce
  • udp://6ahddutb1ucc3cp.ru:6969/announce
  • udp://tracker2.dler.com:80/announce
  • udp://tracker.jordan.im:6969/announce
  • udp://tracker.dix.tf:6969/announce
  • udp://tracker.auctor.tv:6969/announce