The Princess (2022) 1080p h264 Ac3 5.1 Ita Eng Sub Ita Eng-MIRCrew

  • CategoryMovies
  • TypeHD
  • LanguageEnglish
  • Total size2.2 GB
  • Uploaded Byrobbyrs
  • Downloads23
  • Last checkedSep. 20th '22
  • Date uploadedSep. 20th '22
  • Seeders 10
  • Leechers22

The Princess

Fantasy Action

A beautiful, strong-willed young royal refuses to wed the cruel sociopath to whom she is betrothed and is kidnapped and locked in a remote tower of her father’s castle. With her scorned, vindictive suitor intent on taking her father’s throne, the princess must protect her family and save the kingdom.

Infohash : B6907CAD07CB8D886FDCA2BF72B765BBFCDFBFA2

The Princess (2022) 1080p h264 Ac3 5.1 Ita Eng Sub Ita Eng-MIRCrew




NO FOUND ONLY ORIGINAL RELEASE

My release is always in double track audio italian and Original audio
for select it use VLC or dvd player home
not use wmp


The Princess (2022)

Quality MIRCrew in HD 1080p da 2,15 gb







Lingua originale inglese
Paese di produzione Stati Uniti d'America, Canada, Cina
Anno 2022
Durata 130 min
Rapporto 2,39:1
Genere azione, fantascienza, fantastico, avventura, catastrofico
Regia Roland Emmerich
Sceneggiatura Roland Emmerich, Spenser Cohen, Harald Kloser
Fotografia Robby Baumgartner
Effetti speciali Guillaume Murray, Peter G. Travers
Musiche Harald Kloser, Thomas Wander
Scenografia Kirk M. Petruccelli





Halle Berry: Jo Fowler
Patrick Wilson: Brian Harper
John Bradley: K. C. Houseman
Michael Peña: Tom Lopez
Charlie Plummer: Sonny Harper
Kelly Yu: Michelle Yu
Donald Sutherland: Holdenfield
Maxim Roy: capitano Gabriella Auclair






Una principessa si rifiuta di sposare un crudele sociopatico, viene rapita e rinchiusa in una remota torre del castello di suo padre. Con il suo corteggiatore intento a prendere il trono di suo padre, la principessa deve salvare il regno



When a strong-willed princess refuses to wed the cruel sociopath, she is kidnapped and locked in a remote tower of her father’s castle. With her vindictive suitor intent on taking her father’s throne, the princess must save the kingdom.













[spoiler]

General

Complete name : The Princess (2022) 1080p h264 Ac3 5.1 Ita Eng Sub Ita Eng-MIRCrew.mkv
Format : Matroska
Format version : Version 2
File size : 2.16 GiB
Duration : 1h 33mn
Overall bit rate : 3 289 Kbps
Movie name : MIRCrew
Encoded date : UTC 2022-07-04T15:52:20Z
Writing application : mkvmerge v5.8.0 ('No Sleep / Pillow') built on Sep 2 2012 15:37:04
Writing library : Lavf55.12.0

Video
ID : 1
Format : AVC
Format/Info : Advanced Video Codec
Format profile : [email protected]
Format settings, CABAC : Yes
Format settings, ReFrames : 4 frames
Codec ID : V_MPEG4/ISO/AVC
Duration : 1h 33mn
Bit rate : 2 391 Kbps
Nominal bit rate : 2 600 Kbps
Width : 1 920 pixels
Height : 960 pixels
Display aspect ratio : 2.000
Frame rate : 24.000 fps
Color space : YUV
Chroma subsampling : 4:2:0
Bit depth : 8 bits
Scan type : Progressive
Bits/(Pixel*Frame) : 0.054
Stream size : 1.57 GiB (73%)
Title : MIRCrew
Writing library : x264 core 142 r2479 dd79a61
Encoding settings : cabac=1 / ref=1 / deblock=1:0:0
Language : Italian
Default : Yes
Forced : No
Color primaries : BT.709-5, BT.1361, IEC 61966-2-4, SMPTE RP177
Transfer characteristics : BT.709-5, BT.1361
Matrix coefficients : BT.709-5, BT.1361, IEC 61966-2-4 709, SMPTE RP177

Audio #1
ID : 2
Format : AC-3
Format/Info : Audio Coding 3
Mode extension : CM (complete main)
Codec ID : A_AC3
Duration : 1h 33mn
Bit rate mode : Constant
Bit rate : 448 Kbps
Channel(s) : 6 channels
Channel positions : Front: L C R, Side: L R, LFE
Sampling rate : 48.0 KHz
Bit depth : 16 bits
Compression mode : Lossy
Delay relative to video : -5ms
Stream size : 301 MiB (14%)
Title : Ita Ac3 5.1
Language : Italian
Default : Yes
Forced : No

Audio #2
ID : 3
Format : AC-3
Format/Info : Audio Coding 3
Mode extension : CM (complete main)
Codec ID : A_AC3
Duration : 1h 33mn
Bit rate mode : Constant
Bit rate : 384 Kbps
Channel(s) : 6 channels
Channel positions : Front: L C R, Side: L R, LFE
Sampling rate : 48.0 KHz
Bit depth : 16 bits
Compression mode : Lossy
Delay relative to video : -5ms
Stream size : 258 MiB (12%)
Title : Eng Ac3 5.1
Language : English
Default : No
Forced : No

Text #1
ID : 4
Format : ASS
Codec ID : S_TEXT/ASS
Codec ID/Info : Advanced Sub Station Alpha
Compression mode : Lossless
Title : Ita
Language : Italian
Default : No
Forced : No

Text #2
ID : 5
Format : ASS
Codec ID : S_TEXT/ASS
Codec ID/Info : Advanced Sub Station Alpha
Compression mode : Lossless
Title : Eng
Language : English
Default : No
Forced : No




[/spoiler]





Files:

  • The Princess (2022) 1080P h264 Ac3 5.1 Ita Eng Sub Ita Eng-MIRCrew.mkv (2.2 GB)

Code:

  • udp://tracker.torrent.eu.org:451/announce
  • udp://p4p.arenabg.com:1337/announce
  • udp://explodie.org:6969/announce
  • udp://tracker.opentrackr.org:1337/announce
  • udp://tracker.openbittorrent.com:6969/announce
  • udp://opentracker.i2p.rocks:6969/announce
  • udp://exodus.desync.com:6969/announce
  • udp://ipv4.tracker.harry.lu:80/announce
  • udp://open.stealth.si:80/announce
  • udp://9.rarbg.me:2860
  • udp://9.rarbg.to:2840