Inexorable.2022.ITA-FRE.1080p.BluRay.DDP5.1.x264-gattopollo.mkv

  • CategoryMovies
  • TypeHD
  • LanguageFrench
  • Total size10.7 GB
  • Uploaded Byppb1
  • Downloads26
  • Last checkedSep. 21st '22
  • Date uploadedSep. 21st '22
  • Seeders 1
  • Leechers175

Inexorable

Thriller

Desperately seeking inspiration for the follow-up novel to his bestseller "Inexorable", Marcel Bellmer moves in his wife's old family mansion with his family.

Infohash : 789B302725E54D883E0414EA74E70AFB959E8109

.:: TITOLO ::.



Inexorable.2022.ITA-FRE.1080p.BluRay.DDP5.1.x264-gattopollo





.:: INFO FILM ::.




Regia di Fabrice Du Welz.
Genere Thriller
Paese, Belgio, Francia
Anno 2021
Durata 98 minuti.
IMDb

.:: TRAMA ::.

Le vite di una ricca editrice e del marito romanziere vengono cambiate dall'arrivo di una misteriosa giovane donna nella loro villa di campagna.

.:: SCREENSHOTS ::.



.:: INFO TECNICHE ::.

Sorgente Video: Inexorable.2022.REPACK.1080p.BluRay.DTS.x264-NEOLONE
Sorgente Audio : AMZN
Risoluzione: 1920x808, x264
Audio 1: ITA E-AC3 6ch @640Kb/s
Audio 2: FRE DTS 6ch @1509Kb/s
Sottotitoli: ITA FORCED, ITA FULL, FRE FULL.

[center][color=red].:: MEDIAINFO ::.



Code:


General
Unique ID : 182183908418880432867158706999715581709 (0x890F582E97A2364B409CB031BB164F0D)
Complete name : Inexorable.2022.ITA-FRE.1080p.BluRay.DDP5.1.x264-gattopollo.mkv
Format : Matroska
Format version : Version 4
File size : 10.7 GiB
Duration : 1 h 38 min
Overall bit rate : 15.5 Mb/s
Encoded date : UTC 2022-09-20 16:20:41
Writing application : mkvmerge v70.0.0 ('Caught A Lite Sneeze') 64-bit
Writing library : libebml v1.4.2 + libmatroska v1.6.4

Video
ID : 1
Format : AVC
Format/Info : Advanced Video Codec
Format profile : [email protected]
Format settings : CABAC / 4 Ref Frames
Format settings, CABAC : Yes
Format settings, Reference frames : 4 frames
Codec ID : V_MPEG4/ISO/AVC
Duration : 1 h 38 min
Bit rate : 13.4 Mb/s
Width : 1 920 pixels
Height : 808 pixels
Display aspect ratio : 2.40:1
Frame rate mode : Constant
Frame rate : 24.000 FPS
Color space : YUV
Chroma subsampling : 4:2:0
Bit depth : 8 bits
Scan type : Progressive
Bits/(Pixel*Frame) : 0.359
Stream size : 9.20 GiB (86%)
Writing library : x264 core 164 r3065 ae03d92
Encoding settings : cabac=1 / ref=4 / deblock=1:-3:-3 / analyse=0x3:0x133 / me=tesa / subme=10 / psy=1 / psy_rd=1.05:0.00 / mixed_ref=1 / me_range=32 / chroma_me=1 / trellis=2 / 8x8dct=1 / cqm=0 / deadzone=21,11 / fast_pskip=0 / chroma_qp_offset=-2 / threads=12 / lookahead_threads=3 / sliced_threads=0 / nr=0 / decimate=0 / interlaced=0 / bluray_compat=0 / constrained_intra=0 / bframes=16 / b_pyramid=2 / b_adapt=2 / b_bias=0 / direct=3 / weightb=1 / open_gop=0 / weightp=2 / keyint=240 / keyint_min=24 / scenecut=40 / intra_refresh=0 / rc_lookahead=60 / rc=crf / mbtree=0 / crf=19.5 / qcomp=0.65 / qpmin=0 / qpmax=69 / qpstep=4 / vbv_maxrate=62500 / vbv_bufsize=78125 / crf_max=0.0 / nal_hrd=none / filler=0 / ip_ratio=1.40 / pb_ratio=1.30 / aq=3:0.80
Language : French
Default : Yes
Forced : No
Color range : Limited
Color primaries : BT.709
Transfer characteristics : BT.709
Matrix coefficients : BT.709

Audio #1
ID : 2
Format : E-AC-3
Format/Info : Enhanced AC-3
Commercial name : Dolby Digital Plus
Codec ID : A_EAC3
Duration : 1 h 38 min
Bit rate mode : Constant
Bit rate : 640 kb/s
Channel(s) : 6 channels
Channel layout : L R C LFE Ls Rs
Sampling rate : 48.0 kHz
Frame rate : 31.250 FPS (1536 SPF)
Compression mode : Lossy
Delay relative to video : 25 ms
Stream size : 453 MiB (4%)
Language : Italian
Service kind : Complete Main
Default : Yes
Forced : No

Audio #2
ID : 3
Format : DTS
Format/Info : Digital Theater Systems
Codec ID : A_DTS
Duration : 1 h 38 min
Bit rate mode : Constant
Bit rate : 1 509 kb/s
Channel(s) : 6 channels
Channel layout : C L R Ls Rs LFE
Sampling rate : 48.0 kHz
Frame rate : 93.750 FPS (512 SPF)
Bit depth : 24 bits
Compression mode : Lossy
Stream size : 1.04 GiB (10%)
Language : French
Default : No
Forced : No

Text #1
ID : 4
Format : UTF-8
Codec ID : S_TEXT/UTF8
Codec ID/Info : UTF-8 Plain Text
Duration : 1 h 11 min
Bit rate : 0 b/s
Frame rate : 0.002 FPS
Count of elements : 10
Stream size : 437 Bytes (0%)
Title : Forced
Language : Italian
Default : Yes
Forced : Yes

Text #2
ID : 5
Format : UTF-8
Codec ID : S_TEXT/UTF8
Codec ID/Info : UTF-8 Plain Text
Duration : 1 h 29 min
Bit rate : 44 b/s
Frame rate : 0.174 FPS
Count of elements : 938
Stream size : 29.1 KiB (0%)
Language : Italian
Default : No
Forced : No

Text #3
ID : 6
Format : PGS
Codec ID : S_HDMV/PGS
Codec ID/Info : Picture based subtitle format used on BDs/HD-DVDs
Duration : 1 h 37 min
Bit rate : 25.2 kb/s
Frame rate : 0.476 FPS
Count of elements : 2796
Stream size : 17.6 MiB (0%)
Language : French
Default : No
Forced : No

Menu
00:00:00.000 : :Chapter 1
00:07:29.042 : :Chapter 2
00:16:17.375 : :Chapter 3
00:23:58.042 : :Chapter 4
00:32:21.250 : :Chapter 5
00:41:27.292 : :Chapter 6
00:53:03.667 : :Chapter 7
01:00:54.000 : :Chapter 8
01:10:54.792 : :Chapter 9
01:20:59.125 : :Chapter 10
01:26:41.417 : :Chapter 11
01:32:50.875 : :Chapter 12





.:: TORRENT LINK ::.



Inexorable.2022.ITA-FRE.1080p.BluRay.DDP5.1.x264-gattopollo



[



Files:

  • Inexorable.2022.ITA-FRE.1080p.BluRay.DDP5.1.x264-gattopollo.mkv (10.7 GB)

Code:

  • udp://tracker.opentrackr.org:1337/announce
  • udp://p4p.arenabg.com:1337/announce
  • udp://explodie.org:6969/announce
  • udp://ipv4.tracker.harry.lu:80/announce
  • http://tracker1.itzmx.com:8080/announce
  • udp://tracker.moeking.me:6969/announce
  • http://vps02.net.orel.ru:80/announce
  • http://tracker.bt4g.com:2095/announce
  • http://tracker.files.fm:6969/announce
  • udp://opentracker.i2p.rocks:6969/announce