Thor Love and Thunder (2022) [2160p] [HDR] (bluray) [WMAN-LorD]

  • CategoryMovies
  • TypeUHD
  • LanguageEnglish
  • Total size5.1 GB
  • Uploaded ByUHDLorD
  • Downloads5
  • Last checkedSep. 22nd '22
  • Date uploadedSep. 22nd '22
  • Seeders 0
  • Leechers0

Infohash : 1C4099925A74788BC2A7A12959A04FEB03C70828

Release info:


>Encoded by: [WMAN-LorD]
>HDR working!
>Source: Blu-ray Original 4k HDR

















Code:


General
Unique ID : 297283086431839197015317564487664634825 (0xDFA6A3CAB6576AD6D75244A7EF838BC9)
Complete name : Thor.Love.and.Thunder.2022.2160p.UHD.HDR.BluRay.x265.10bit.DD5.1.[WMAN-LorD].mkv
Format : Matroska
Format version : Version 4
File size : 5.08 GiB
Duration : 1 h 58 min
Overall bit rate : 6 127 kb/s
Movie name : Thor Love and Thunder (2022) [WMAN-LorD]
Encoded date : UTC 2022-09-21 20:53:00
Writing application : mkvmerge v70.0.0 ('Caught A Lite Sneeze') 64-bit
Writing library : libebml v1.4.2 + libmatroska v1.6.4
Cover : Yes
Attachments : cover.jpg

Video
ID : 1
Format : HEVC
Format/Info : High Efficiency Video Coding
Format profile : Main [email protected]@Main
HDR format : SMPTE ST 2086, HDR10 compatible
Codec ID : V_MPEGH/ISO/HEVC
Duration : 1 h 58 min
Bit rate : 5 296 kb/s
Width : 3 840 pixels
Height : 2 160 pixels
Display aspect ratio : 16:9
Frame rate mode : Constant
Frame rate : 23.976 (24000/1001) FPS
Color space : YUV
Chroma subsampling : 4:2:0 (Type 2)
Bit depth : 10 bits
Bits/(Pixel*Frame) : 0.027
Stream size : 4.39 GiB (86%)
Title : [WMAN-LorD]
Language : English
Default : Yes
Forced : No
Color range : Limited
Color primaries : BT.2020
Transfer characteristics : PQ
Matrix coefficients : BT.2020 non-constant
Mastering display color pri : BT.2020
Mastering display luminance : min: 0.0050 cd/m2, max: 1000 cd/m2

Audio
ID : 2
Format : E-AC-3 JOC
Format/Info : Enhanced AC-3 with Joint Object Coding
Commercial name : Dolby Digital Plus with Dolby Atmos
Codec ID : A_EAC3
Duration : 1 h 58 min
Bit rate mode : Constant
Bit rate : 768 kb/s
Channel(s) : 6 channels
Channel layout : L R C LFE Ls Rs
Sampling rate : 48.0 kHz
Frame rate : 31.250 FPS (1536 SPF)
Compression mode : Lossy
Stream size : 652 MiB (13%)
Title : Dolby Digital Plus - ATMOS / 5.1 / 48 kHz / 768 kbps
Language : English
Service kind : Complete Main
Default : Yes
Forced : No
Complexity index : 16
Number of dynamic objects : 15
Bed channel count : 1 channel
Bed channel configuration : LFE

Text #1
ID : 3
Format : UTF-8
Codec ID : S_TEXT/UTF8
Codec ID/Info : UTF-8 Plain Text
Duration : 1 h 57 min
Bit rate : 54 b/s
Count of elements : 1475
Stream size : 47.1 KiB (0%)
Title : Portuguese Brazil
Language : Portuguese
Default : Yes
Forced : No

Text #2
ID : 4
ID in the original source m : 4768 (0x12A0)
Format : PGS
Muxing mode : zlib
Codec ID : S_HDMV/PGS
Codec ID/Info : Picture based subtitle format used on BDs/HD-DVDs
Duration : 1 h 58 min
Bit rate : 52.5 kb/s
Count of elements : 4548
Stream size : 44.4 MiB (1%)
Language : English
Default : No
Forced : No
Original source medium : Blu-ray

Text #3
ID : 5
ID in the original source m : 4769 (0x12A1)
Format : PGS
Muxing mode : zlib
Codec ID : S_HDMV/PGS
Codec ID/Info : Picture based subtitle format used on BDs/HD-DVDs
Duration : 1 h 57 min
Bit rate : 38.7 kb/s
Count of elements : 3270
Stream size : 32.6 MiB (1%)
Language : French
Default : No
Forced : No
Original source medium : Blu-ray

Text #4
ID : 6
ID in the original source m : 4770 (0x12A2)
Format : PGS
Muxing mode : zlib
Codec ID : S_HDMV/PGS
Codec ID/Info : Picture based subtitle format used on BDs/HD-DVDs
Duration : 1 h 57 min
Bit rate : 38.1 kb/s
Count of elements : 3224
Stream size : 32.1 MiB (1%)
Language : Spanish
Default : No
Forced : No
Original source medium : Blu-ray

Text #5
ID : 7
ID in the original source m : 4771 (0x12A3)
Format : PGS
Muxing mode : zlib
Codec ID : S_HDMV/PGS
Codec ID/Info : Picture based subtitle format used on BDs/HD-DVDs
Duration : 1 h 57 min
Bit rate : 23.9 kb/s
Count of elements : 3106
Stream size : 20.1 MiB (0%)
Language : Japanese
Default : No
Forced : No
Original source medium : Blu-ray

Text #6
ID : 8
ID in the original source m : 4772 (0x12A4)
Format : PGS
Muxing mode : zlib
Codec ID : S_HDMV/PGS
Codec ID/Info : Picture based subtitle format used on BDs/HD-DVDs
Duration : 1 h 43 min
Bit rate : 685 b/s
Count of elements : 64
Stream size : 522 KiB (0%)
Title : FORCED
Language : French
Default : No
Forced : No
Original source medium : Blu-ray

Text #7
ID : 9
ID in the original source m : 4773 (0x12A5)
Format : PGS
Muxing mode : zlib
Codec ID : S_HDMV/PGS
Codec ID/Info : Picture based subtitle format used on BDs/HD-DVDs
Duration : 1 h 43 min
Bit rate : 310 b/s
Count of elements : 28
Stream size : 237 KiB (0%)
Title : FORCED
Language : Spanish
Default : No
Forced : No
Original source medium : Blu-ray

Text #8
ID : 10
ID in the original source m : 4774 (0x12A6)
Format : PGS
Muxing mode : zlib
Codec ID : S_HDMV/PGS
Codec ID/Info : Picture based subtitle format used on BDs/HD-DVDs
Duration : 1 h 43 min
Bit rate : 292 b/s
Count of elements : 28
Stream size : 223 KiB (0%)
Title : FORCED
Language : Japanese
Default : No
Forced : No
Original source medium : Blu-ray

Menu
00:00:00.000 : en:Chapter 01
00:06:45.154 : en:Chapter 02
00:10:11.319 : en:Chapter 03
00:14:23.904 : en:Chapter 04
00:18:13.425 : en:Chapter 05
00:20:59.508 : en:Chapter 06
00:21:47.806 : en:Chapter 07
00:27:00.994 : en:Chapter 08
00:28:16.069 : en:Chapter 09
00:29:52.248 : en:Chapter 10
00:31:24.424 : en:Chapter 11
00:35:14.987 : en:Chapter 12
00:38:40.443 : en:Chapter 13
00:45:37.443 : en:Chapter 14
00:53:04.055 : en:Chapter 15
01:06:19.684 : en:Chapter 16
01:14:16.910 : en:Chapter 17
01:24:35.737 : en:Chapter 18
01:28:30.972 : en:Chapter 19
01:30:19.622 : en:Chapter 20
01:34:17.652 : en:Chapter 21
01:38:12.511 : en:Chapter 22
01:44:45.654 : en:Chapter 23
01:48:17.282 : en:Chapter 24
01:50:03.221 : en:Chapter 25
01:51:14.542 : en:Chapter 26








Files:

Thor Love and Thunder (2022) [2160p] [HDR] (bluray) [WMAN-LorD]
  • Thor.Love.and.Thunder.2022.2160p.UHD.HDR.BluRay.x265.10bit.DD5.1.[WMAN-LorD].mkv (5.1 GB)

Code:

  • udp://tracker.tiny-vps.com:6969/announce
  • udp://fasttracker.foreverpirates.co:6969/announce
  • udp://tracker.opentrackr.org:1337/announce
  • udp://explodie.org:6969/announce
  • udp://open.stealth.si:80/announce
  • udp://tracker.cyberia.is:6969/announce
  • udp://ipv4.tracker.harry.lu:80/announce
  • udp://tracker.uw0.xyz:6969/announce
  • udp://tracker.dler.org:6969/announce
  • udp://9.rarbg.to:2710/announce
  • udp://tracker.moeking.me:6969/announce
  • udp://tracker.beeimg.com:6969/announce
  • udp://tracker2.dler.com:80/announce
  • udp://6ahddutb1ucc3cp.ru:6969/announce
  • udp://tracker.dix.tf:6969/announce