Thai Cave Rescue (Season 1)

  • CategoryMovies
  • TypeHD
  • LanguageEnglish
  • Total size7.2 GB
  • Uploaded BySATAN555
  • Downloads2
  • Last checkedSep. 22nd '22
  • Date uploadedSep. 22nd '22
  • Seeders 0
  • Leechers0

Infohash : 9BE54CBA0AB0561403DBC0DB4708D0F4F2BF53CB

Thai Cave Rescue (Season 1)



The Wild Boars soccer team meet for practice with plans to explore a cave afterwards. Little do they know that their lives are about to change forever.



ScreenShots:
















Media

General
Format : MPEG-4
Format profile : Base Media
Codec ID : isom (isom/iso2/avc1/mp41)
File size : 1.19 GiB
Duration : 53 min 9 s
Overall bit rate mode : Variable
Overall bit rate : 3 211 kb/s
Collection : Thai Cave Rescue
Season : 1
Recorded date : 2022
Writing application : Lavf58.29.100
Cover : Yes
Part_ID : 1

Video
ID : 1
Format : AVC
Format/Info : Advanced Video Codec
Format profile : [email protected]
Format settings : CABAC / 1 Ref Frames
Format settings, CABAC : Yes
Format settings, Reference frames : 1 frame
Codec ID : avc1
Codec ID/Info : Advanced Video Coding
Duration : 53 min 8 s
Bit rate mode : Variable
Bit rate : 2 441 kb/s
Maximum bit rate : 6 000 kb/s
Width : 1 920 pixels
Height : 1 080 pixels
Display aspect ratio : 16:9
Frame rate mode : Constant
Frame rate : 24.000 FPS
Color space : YUV
Chroma subsampling : 4:2:0
Bit depth : 8 bits
Scan type : Progressive
Bits/(Pixel*Frame) : 0.049
Stream size : 928 MiB (76%)
Codec configuration box : avcC

Audio #1
ID : 2
Format : E-AC-3
Format/Info : Enhanced AC-3
Commercial name : Dolby Digital Plus
Codec ID : ec-3
Duration : 53 min 9 s
Bit rate mode : Constant
Bit rate : 640 kb/s
Channel(s) : 6 channels
Channel layout : L R C LFE Ls Rs
Sampling rate : 48.0 kHz
Frame rate : 31.250 FPS (1536 SPF)
Compression mode : Lossy
Stream size : 243 MiB (20%)
Title : English
Language : English
Service kind : Complete Main
Default : Yes
Alternate group : 1

Audio #2
ID : 3
Format : AAC LC SBR
Format/Info : Advanced Audio Codec Low Complexity with Spectral Band Replication
Commercial name : HE-AAC
Format settings : Explicit
Codec ID : mp4a-40-2
Duration : 53 min 9 s
Bit rate mode : Constant
Bit rate : 128 kb/s
Channel(s) : 2 channels
Channel layout : L R
Sampling rate : 48.0 kHz
Frame rate : 23.438 FPS (2048 SPF)
Compression mode : Lossy
Stream size : 48.7 MiB (4%)
Title : English
Language : English
Default : No
Alternate group : 1

Text #1
ID : 4
Format : Timed Text
Muxing mode : sbtl
Codec ID : tx3g
Duration : 43 min 47 s
Bit rate mode : Variable
Bit rate : 69 b/s
Frame rate : 0.494 FPS
Stream size : 22.1 KiB (0%)
Title : English
Language : English
Default : Yes
Forced : No
Alternate group : 3

Text #2
ID : 5
Format : Timed Text
Muxing mode : sbtl
Codec ID : tx3g
Duration : 48 min 15 s
Bit rate mode : Variable
Bit rate : 1 b/s
Frame rate : 0.007 FPS
Stream size : 367 Bytes (0%)
Title : English (Forced Narrative)
Language : English
Default : No
Forced : No
Alternate group : 3

Text #3
ID : 6
Format : Timed Text
Muxing mode : sbtl
Codec ID : tx3g
Duration : 48 min 11 s
Bit rate mode : Variable
Bit rate : 63 b/s
Frame rate : 0.453 FPS
Stream size : 22.1 KiB (0%)
Title : English
Language : English
Default : No
Forced : No
Alternate group : 3

Text #4
ID : 7
Format : Timed Text
Muxing mode : sbtl
Codec ID : tx3g
Duration : 44 min 0 s
Bit rate mode : Variable
Bit rate : 91 b/s
Frame rate : 0.580 FPS
Stream size : 29.2 KiB (0%)
Title : English (CC)
Language : English
Default : No
Forced : No
Alternate group : 3



Files:

Thai Cave Rescue (Season 1)
  • Thai Cave Rescue S01E02 To Not Offend the Gods.mp4 (1.4 GB)
  • Thai Cave Rescue S01E01 The Legend of Tham Luang.mp4 (1.2 GB)
  • Thai Cave Rescue S01E03 The Princess Chalice.mp4 (1.0 GB)
  • Thai Cave Rescue S01E04 Lucky Baht.mp4 (1,006.6 MB)
  • Thai Cave Rescue S01E05 The Parable of Kisa Gotami.mp4 (1.2 GB)
  • Thai Cave Rescue S01E06 Moo Pa.mp4 (1.4 GB)

Code:

  • udp://tracker.opentrackr.org:1337/announce
  • udp://tracker.torrent.eu.org:451/announce
  • udp://tracker.tiny-vps.com:6969/announce
  • udp://exodus.desync.com:6969/announce
  • udp://explodie.org:6969/announce
  • http://t.nyaatracker.com:80/announce
  • udp://open.stealth.si:80/announce
  • http://tracker.dler.org:6969/announce
  • udp://ipv4.tracker.harry.lu:80/announce
  • http://vps02.net.orel.ru:80/announce
  • udp://vibe.sleepyinternetfun.xyz:1738/announce
  • udp://tracker.bitsearch.to:1337/announce
  • udp://www.torrent.eu.org:451/announce
  • http://tracker.openbittorrent.com:80/announce
  • udp://opentracker.i2p.rocks:6969/announce
  • udp://tracker.internetwarriors.net:1337/announce
  • udp://tracker.leechers-paradise.org:6969/announce
  • udp://coppersurfer.tk:6969/announce
  • udp://tracker.zer0day.to:1337/announce