A.Haunted.House.2013.1080p.BluRay.x265.Degrained.DTS-An0mal1.mkv

  • CategoryMovies
  • TypeHEVC/x265
  • LanguageEnglish
  • Total size3.2 GB
  • Uploaded ByAn0mal1
  • Downloads7
  • Last checkedSep. 22nd '22
  • Date uploadedSep. 22nd '22
  • Seeders 0
  • Leechers0

A Haunted House

Comedy Horror

A spoof of all the "found-footage/documentary style" films released in recent years.

Infohash : C9FF88454059662F5583B1EE14AC5F4F847A48A6

Quote:

General
Unique ID : 16262870166831815817549170904445597262 (0xC3C1D67B3664D0030525E7DACF9B64E)
Complete name : E:\-=Movies=-\-=Comedy=-\A Haunted House\A.Haunted.House.2013.1080p.BluRay.x265.Degrained.DTS-An0mal1\A.Haunted.House.2013.1080p.BluRay.x265.Degrained.DTS-An0mal1.mkv
Format : Matroska
Format version : Version 4
File size : 3.17 GiB
Duration : 1 h 26 min
Overall bit rate : 5 249 kb/s
Encoded date : UTC 2022-09-16 02:51:29
Writing application : mkvmerge v67.0.0 ('Under Stars') 64-bit
Writing library : libebml v1.4.2 + libmatroska v1.6.4
Attachments : B0B8LQJWH6.jpg

Video
ID : 1
Format : HEVC
Format/Info : High Efficiency Video Coding
Format profile : Main [email protected]@Main
Codec ID : V_MPEGH/ISO/HEVC
Duration : 1 h 26 min
Bit rate : 3 739 kb/s
Width : 1 920 pixels
Height : 1 040 pixels
Display aspect ratio : 1.85:1
Frame rate mode : Constant
Frame rate : 23.976 (24000/1001) FPS
Color space : YUV
Chroma subsampling : 4:2:0
Bit depth : 10 bits
Bits/(Pixel*Frame) : 0.078
Stream size : 2.26 GiB (71%)
Writing library : x265 3.5+37+12-4e46995bc:[Windows][MSVC 1931][64 bit] 10bit
Encoding settings : cpuid=1111039 / frame-threads=4 / numa-pools=16 / wpp / no-pmode / no-pme / no-psnr / no-ssim / log-level=2 / input-csp=1 / input-res=1920x1040 / interlace=0 / total-frames=124319 / level-idc=0 / high-tier=1 / uhd-bd=0 / ref=5 / no-allow-non-conformance / no-repeat-headers / annexb / no-aud / no-eob / no-eos / no-hrd / info / hash=0 / no-temporal-layers / open-gop / min-keyint=23 / keyint=250 / gop-lookahead=0 / bframes=8 / b-adapt=2 / b-pyramid / bframe-bias=0 / rc-lookahead=40 / lookahead-slices=4 / scenecut=40 / no-hist-scenecut / radl=0 / no-splice / no-intra-refresh / ctu=64 / min-cu-size=8 / rect / no-amp / max-tu-size=32 / tu-inter-depth=1 / tu-intra-depth=1 / limit-tu=0 / rdoq-level=2 / dynamic-rd=0.00 / no-ssim-rd / signhide / no-tskip / nr-intra=0 / nr-inter=0 / no-constrained-intra / strong-intra-smoothing / max-merge=3 / limit-refs=3 / limit-modes / me=3 / subme=5 / merange=57 / temporal-mvp / no-frame-dup / no-hme / weightp / no-weightb / no-analyze-src-pics / deblock=-3:-3 / no-sao / no-sao-non-deblock / rd=4 / selective-sao=0 / no-early-skip / rskip / no-fast-intra / no-tskip-fast / no-cu-lossless / no-b-intra / no-splitrd-skip / rdpenalty=0 / psy-rd=2.00 / psy-rdoq=1.00 / no-rd-refine / no-lossless / cbqpoffs=0 / crqpoffs=0 / rc=crf / crf=19.0 / qcomp=0.60 / qpstep=4 / stats-write=0 / stats-read=0 / ipratio=1.40 / pbratio=1.30 / aq-mode=5 / aq-strength=1.00 / aq-bias-strength=1.00 / cutree / zone-count=0 / no-strict-cbr / qg-size=32 / no-rc-grain / qpmax=69 / qpmin=0 / no-const-vbv / sar=0 / overscan=0 / videoformat=5 / range=0 / colorprim=2 / transfer=2 / colormatrix=2 / chromaloc=0 / display-window=0 / cll=0,0 / min-luma=0 / max-luma=1023 / log2-max-poc-lsb=8 / vui-timing-info / vui-hrd-info / slices=1 / no-opt-qp-pps / no-opt-ref-list-length-pps / no-multi-pass-opt-rps / scenecut-bias=0.05 / hist-threshold=0.03 / no-opt-cu-delta-qp / no-aq-motion / no-hdr10 / no-hdr10-opt / no-dhdr10-opt / no-idr-recovery-sei / analysis-reuse-level=0 / analysis-save-reuse-level=0 / analysis-load-reuse-level=0 / scale-factor=0 / refine-intra=0 / refine-inter=0 / refine-mv=1 / refine-ctu-distortion=0 / no-limit-sao / ctu-info=0 / no-lowpass-dct / refine-analysis-type=0 / copy-pic=1 / max-ausize-factor=1.0 / no-dynamic-refine / no-single-sei / no-hevc-aq / no-svt / no-field / qp-adaptation-range=1.00 / scenecut-aware-qp=0conformance-window-offsets / right=0 / bottom=0 / decoder-max-rate=0 / no-vbv-live-multi-pass
Default : Yes
Forced : No

Audio
ID : 2
Format : DTS
Format/Info : Digital Theater Systems
Codec ID : A_DTS
Duration : 1 h 26 min
Bit rate mode : Constant
Bit rate : 1 509 kb/s
Channel(s) : 6 channels
Channel layout : C L R Ls Rs LFE
Sampling rate : 48.0 kHz
Frame rate : 93.750 FPS (512 SPF)
Bit depth : 24 bits
Compression mode : Lossy
Stream size : 932 MiB (29%)
Language : English
Default : Yes
Forced : No

Text
ID : 3
Format : UTF-8
Codec ID : S_TEXT/UTF8
Codec ID/Info : UTF-8 Plain Text
Duration : 1 h 25 min
Bit rate : 116 b/s
Count of elements : 2055
Stream size : 72.8 KiB (0%)
Language : English
Default : No
Forced : No

Menu
00:00:00.000 : en:00:00:00.000
00:04:18.967 : en:00:04:18.967
00:06:59.377 : en:00:06:59.377
00:11:49.334 : en:00:11:49.334
00:15:40.606 : en:00:15:40.606
00:17:27.171 : en:00:17:27.171
00:22:14.750 : en:00:22:14.750
00:28:05.559 : en:00:28:05.559
00:33:22.209 : en:00:33:22.209
00:37:39.340 : en:00:37:39.340
00:42:42.018 : en:00:42:42.018
00:47:30.973 : en:00:47:30.973
00:50:04.585 : en:00:50:04.585
00:53:33.794 : en:00:53:33.794
00:57:44.586 : en:00:57:44.586
01:02:17.567 : en:01:02:17.567
01:07:58.116 : en:01:07:58.116
01:12:58.583 : en:01:12:58.583
01:18:26.493 : en:01:18:26.493
01:21:36.892 : en:01:21:36.892





Files:

  • A.Haunted.House.2013.1080p.BluRay.x265.Degrained.DTS-An0mal1.mkv (3.2 GB)

Code:

  • udp://tracker.tiny-vps.com:6969/announce