Brahmastra.Part.One.-.Shiva.(2022).1080p.DSNP.WEB-DL.Hindi-Multi.DDP5.1.HEVC-themoviesbos

  • CategoryMovies
  • TypeBollywood
  • LanguageHindi
  • Total size3.8 GB
  • Uploaded Bytmb001
  • Downloads211
  • Last checkedNov. 04th '22
  • Date uploadedNov. 04th '22
  • Seeders 12
  • Leechers90

Brahmastra Part One: Shiva

Adventure Action Fantasy Drama

The story of Shiva – a young man on the brink of an epic love, with a girl named Isha. But their world is turned upside down when Shiva learns that he has a mysterious connection to the Brahmāstra... and a great power within him that he doesn’t understand just yet - the power of Fire.

Infohash : ED5454E2FA31EB224CED694D8DB17569A6D15EA5



Brahmastra.Part.One.-.Shiva.(2022).1080p.DSNP.WEB-DL.Hindi-Multi.DDP5.1.HEVC-themoviesbos



Media Info



Format : Matroska
Format version : Version 4
File size : 3.83 GiB
Duration : 2 h 48 min
Overall bit rate : 3 245 kb/s
Encoded date : UTC 2022-11-03 18:44:21
Writing library : libebml v1.4.2 + libmatroska v1.6.4

Video
ID : 2
Format : HEVC
Format/Info : High Efficiency Video Coding
Format profile : [email protected]@Main
Codec ID : V_MPEGH/ISO/HEVC
Duration : 2 h 48 min
Bit rate : 2 282 kb/s
Width : 1 920 pixels
Height : 1 080 pixels
Display aspect ratio : 16:9
Frame rate mode : Constant
Frame rate : 24.000 FPS
Color space : YUV
Chroma subsampling : 4:2:0
Bit depth : 8 bits
Bits/(Pixel*Frame) : 0.046
Stream size : 2.69 GiB (70%)
Title : themoviesboss
Writing library : x265 3.5:[Linux][GCC 9.4.0][64 bit] 8bit+10bit+12bit
Language : English
Default : Yes
Forced : No
Color range : Limited
Color primaries : BT.709
Matrix coefficients : BT.709

Audio #1
ID : 3
Format : E-AC-3
Format/Info : Enhanced AC-3
Commercial name : Dolby Digital Plus
Codec ID : A_EAC3
Duration : 2 h 48 min
Bit rate mode : Constant
Bit rate : 192 kb/s
Channel(s) : 6 channels
Channel layout : L R C LFE Ls Rs
Sampling rate : 48.0 kHz
Frame rate : 31.250 FPS (1536 SPF)
Compression mode : Lossy
Stream size : 232 MiB (6%)
Title : themoviesboss
Language : Hindi
Service kind : Complete Main
Default : Yes
Forced : No

Audio #2
ID : 4
Format : E-AC-3
Format/Info : Enhanced AC-3
Commercial name : Dolby Digital Plus
Codec ID : A_EAC3
Duration : 2 h 48 min
Bit rate mode : Constant
Bit rate : 192 kb/s
Channel(s) : 6 channels
Channel layout : L R C LFE Ls Rs
Sampling rate : 48.0 kHz
Frame rate : 31.250 FPS (1536 SPF)
Compression mode : Lossy
Stream size : 232 MiB (6%)
Title : themoviesboss
Language : Kannada
Service kind : Complete Main
Default : No
Forced : No

Audio #3
ID : 5
Format : E-AC-3
Format/Info : Enhanced AC-3
Commercial name : Dolby Digital Plus
Codec ID : A_EAC3
Duration : 2 h 48 min
Bit rate mode : Constant
Bit rate : 192 kb/s
Channel(s) : 6 channels
Channel layout : L R C LFE Ls Rs
Sampling rate : 48.0 kHz
Frame rate : 31.250 FPS (1536 SPF)
Compression mode : Lossy
Stream size : 232 MiB (6%)
Title : themoviesboss
Language : Tamil
Service kind : Complete Main
Default : No
Forced : No

Audio #4
ID : 6
Format : E-AC-3
Format/Info : Enhanced AC-3
Commercial name : Dolby Digital Plus
Codec ID : A_EAC3
Duration : 2 h 48 min
Bit rate mode : Constant
Bit rate : 192 kb/s
Channel(s) : 6 channels
Channel layout : L R C LFE Ls Rs
Sampling rate : 48.0 kHz
Frame rate : 31.250 FPS (1536 SPF)
Compression mode : Lossy
Stream size : 232 MiB (6%)
Title : themoviesboss
Language : Malayalam
Service kind : Complete Main
Default : No
Forced : No

Audio #5
ID : 7
Format : E-AC-3
Format/Info : Enhanced AC-3
Commercial name : Dolby Digital Plus
Codec ID : A_EAC3
Duration : 2 h 48 min
Bit rate mode : Constant
Bit rate : 192 kb/s
Channel(s) : 6 channels
Channel layout : L R C LFE Ls Rs
Sampling rate : 48.0 kHz
Frame rate : 31.250 FPS (1536 SPF)
Compression mode : Lossy
Stream size : 232 MiB (6%)
Title : themoviesboss
Language : Telugu
Service kind : Complete Main
Default : No
Forced : No

Text #1
ID : 1
Format : UTF-8
Codec ID : S_TEXT/UTF8
Codec ID/Info : UTF-8 Plain Text
Duration : 30 s 200 ms
Bit rate : 42 b/s
Frame rate : 0.033 FPS
Count of elements : 1
Stream size : 160 Bytes (0%)
Title : TheMoviesBoss
Language : English
Default : Yes
Forced : Yes

Text #2
ID : 8
Format : UTF-8
Codec ID : S_TEXT/UTF8
Codec ID/Info : UTF-8 Plain Text
Duration : 2 h 37 min
Bit rate : 40 b/s
Frame rate : 0.191 FPS
Count of elements : 1803
Stream size : 47.1 KiB (0%)
Title : themoviesboss[Full]
Language : English
Default : No
Forced : No



Screenshots:


















Files:

  • TheMoviesBoss - Brahmastra.Part.One.-.Shiva.(2022).1080p.DSNP.WEB-DL.Multi.DDP5.1.HEVC-themoviesboss.mkv (3.8 GB)

Code:

  • udp://tracker.tiny-vps.com:6969/announce
  • udp://fasttracker.foreverpirates.co:6969/announce
  • udp://tracker.opentrackr.org:1337/announce
  • udp://explodie.org:6969/announce
  • udp://open.stealth.si:80/announce
  • udp://tracker.cyberia.is:6969/announce
  • udp://ipv4.tracker.harry.lu:80/announce
  • udp://tracker.uw0.xyz:6969/announce
  • udp://tracker.dler.org:6969/announce
  • udp://9.rarbg.to:2710/announce
  • udp://open.demonii.com:1337/announce
  • udp://zecircle.xyz:6969/announce
  • udp://tracker.leech.ie:1337/announce
  • udp://tracker.pomf.se:80/announce
  • udp://run-2.publictracker.xyz:6969/announce