Sita.Ramam.2022.1080p.10bit.DS4K.AMZN.WEBRip.[Org.DDP5.1-Hindi+DDP5.1-Telugu].Atmos.ESub.HEVC-The.PunisheR

  • CategoryMovies
  • TypeDubs/Dual Audio
  • LanguageHindi
  • Total size5.9 GB
  • Uploaded BySava
  • Downloads398
  • Last checkedNov. 18th '22
  • Date uploadedNov. 18th '22
  • Seeders 65
  • Leechers102

Sita Ramam

Romance Drama

A long-lost letter must find its way to the recipient twenty years later. A rabble-rouser learns a lesson in humility and love along the way.

Infohash : E5D06DA74735B0275FB0F2FDCC157DC23160CB93


? We Have Re-Created This Heaven ?
? My All Encodes & New Releases will be available soon on "DesiShare" ?



------------------------------------------------------------------------





Sita.Ramam.2022.1080p.10bit.DS4K.AMZN.WEBRip.[Org.DDP5.1-Hindi+DDP5.1-Telugu].Atmos.ESub.HEVC-The.PunisheR



? Encoded Using CRF 16 From 4K WEB-DL ?



MediaInfos:
General
Unique ID : 250192455639357016185845504490118695445 (0xBC3950708FE58A3A033F11ECE3C9CA15)
Complete name : Sita.Ramam.2022.1080p.10bit.DS4K.AMZN.WEBRip.[Org.DDP5.1-Hindi+DDP5.1-Telugu].Atmos.ESub.HEVC-The.PunisheR.mkv
Format : Matroska
Format version : Version 4 / Version 2
File size : 5.87 GiB
Duration : 2 h 38 min
Overall bit rate : 5 307 kb/s
Movie name : The.PunisheR
Encoded date : UTC 2022-11-18 04:37:19
Writing application : mkvmerge v71.1.0 ('Fortitude') 64-bit
Writing library : libebml v1.4.4 + libmatroska v1.7.1
Attachments : Encoded-By-The-PunisheR.jpg

Video
ID : 1
Format : HEVC
Format/Info : High Efficiency Video Coding
Format profile : Main [email protected]@High
Codec ID : V_MPEGH/ISO/HEVC
Duration : 2 h 38 min
Bit rate : 4 664 kb/s
Width : 1 920 pixels
Height : 804 pixels
Display aspect ratio : 2.40:1
Frame rate mode : Constant
Frame rate : 24.000 FPS
Color space : YUV
Chroma subsampling : 4:2:0 (Type 0)
Bit depth : 10 bits
Bits/(Pixel*Frame) : 0.126
Stream size : 5.16 GiB (88%)
Title : 1080p / 10bit / DS4K / AMZN / WEBRip / Q15 / HPL / HEVC ~ The.PunisheR
Default : Yes
Forced : No
Color range : Limited
Color primaries : BT.709
Transfer characteristics : BT.709
Matrix coefficients : BT.709

Audio #1
ID : 2
Format : E-AC-3
Format/Info : Enhanced Audio Coding 3
Codec ID : A_EAC3
Duration : 2 h 38 min
Bit rate mode : Constant
Bit rate : 192 kb/s See Source Information
Channel(s) : 6 channels
Channel positions : Front: L C R, Side: L R, LFE
Sampling rate : 48.0 kHz
Frame rate : 187.500 FPS (256 SPF)
Compression mode : Lossy
Stream size : 217 MiB (4%)
Title : Org. HS / DD+5.1 / 192kbps / 48kHz ~ The.PunisheR
Language : Hindi
Service kind : Complete Main
Default : Yes
Forced : Yes

Audio #2
ID : 3
Format : E-AC-3
Format/Info : Enhanced Audio Coding 3
Format profile : E-AC-3+Atmos / E-AC-3
Codec ID : A_EAC3
Duration : 2 h 38 min
Bit rate mode : Constant
Bit rate : 448 kb/s
Channel(s) : 15 objects / 6 channels
Channel positions : 15 objects / Front: L C R, Side: L R, LFE
Sampling rate : 48.0 kHz
Frame rate : 187.500 FPS (256 SPF)
Bit depth : 32 bits
Compression mode : Lossy
Stream size : 507 MiB (8%)
Title : DD+5.1 / Atmos / 448kbps / 48kHz ~ The.PunisheR
Language : Telugu
Service kind : Complete Main
Default : No
Forced : No

Text
ID : 4
Format : UTF-8
Codec ID : S_TEXT/UTF8
Codec ID/Info : UTF-8 Plain Text
Duration : 2 h 34 min
Bit rate : 69 b/s
Count of elements : 2683
Stream size : 78.4 KiB (0%)
Title : English - SRT
Language : English
Default : Yes
Forced : No



Screenshots:












Quote:


Source : Sita.Ramam.2022.2160p.AMZN.WEB-DL.DDP5.1.Atmos.HEVC-Telly
Size : 16.32 GB
Hindi Audio : Sita.Ramam.2022.Org.HS.Hindi.DDP5.1-192kbps.Audio-ShiNobi
Size : 211.47 MB



HS Audio was 25FPS -> Converted to 24FPS in "48kHz 6ch WAV" -> Later Synced With AMZN Telugu Audio -> Than Encoded With Dolby Media Encoder to Achieve 100% Same Dynamic Range Output as Source

Here's The Spek



ENjOY THE QUALiTY





Files:

  • Sita.Ramam.2022.1080p.10bit.DS4K.AMZN.WEBRip.[Org.DDP5.1-Hindi+DDP5.1-Telugu].Atmos.ESub.HEVC-The.PunisheR.mkv (5.9 GB)

Code:

  • udp://tracker.opentrackr.org:1337/announce
  • udp://9.rarbg.com:2810/announce
  • udp://tracker.torrent.eu.org:451/announce
  • udp://tracker.openbittorrent.com:6969/announce
  • udp://opentracker.i2p.rocks:6969/announce
  • https://opentracker.i2p.rocks:443/announce
  • http://tracker.openbittorrent.com:80/announce
  • udp://open.stealth.si:80/announce
  • udp://tracker1.bt.moack.co.kr:80/announce
  • udp://tracker.tiny-vps.com:6969/announce
  • udp://tracker.moeking.me:6969/announce
  • udp://tracker.dler.org:6969/announce
  • udp://tracker.bitsearch.to:1337/announce
  • udp://p4p.arenabg.com:1337/announce
  • udp://open.demonii.com:1337/announce
  • udp://movies.zsw.ca:6969/announce
  • udp://ipv4.tracker.harry.lu:80/announce
  • udp://explodie.org:6969/announce
  • udp://exodus.desync.com:6969/announce
  • https://tracker2.ctix.cn:443/announce