Drishyam.2.2022.1080p.AMZN.WEB-DL.DDP5.1.HEVC-themoviesboss

  • CategoryMovies
  • TypeBollywood
  • LanguageHindi
  • Total size2.5 GB
  • Uploaded Bytmb001
  • Downloads265
  • Last checkedDec. 30th '22
  • Date uploadedDec. 30th '22
  • Seeders 38
  • Leechers90

Drishyam 2

Crime Thriller Drama Mystery

7 years after the case related to Vijay Salgaonkar and his family was closed, a series of unexpected events bring truth to light that threatens to change everything for the Salgaonkars. Can Vijay save his family this time?

Infohash : D9CA492EE4B6A34319E48F2A15096BF4AC459169



Drishyam.2.2022.1080p.AMZN.WEB-DL.DDP5.1.HEVC-themoviesboss



Media Info



Format : Matroska
Format version : Version 4
File size : 2.46 GiB
Duration : 2 h 19 min
Overall bit rate : 2 516 kb/s
Encoded date : UTC 2022-12-29 18:37:17
Writing application : mkvmerge v69.0.0 ('Day And Age') 64-bit
Writing library : libebml v1.4.2 + libmatroska v1.6.4

Video
ID : 1
Format : HEVC
Format/Info : High Efficiency Video Coding
Format profile : [email protected]@Main
Codec ID : V_MPEGH/ISO/HEVC
Duration : 2 h 19 min
Bit rate : 1 875 kb/s
Width : 1 920 pixels
Height : 800 pixels
Display aspect ratio : 2.40:1
Frame rate mode : Constant
Frame rate : 24.000 FPS
Standard : NTSC
Color space : YUV
Chroma subsampling : 4:2:0
Bit depth : 8 bits
Bits/(Pixel*Frame) : 0.051
Stream size : 1.83 GiB (74%)
Default : Yes
Forced : No
Color range : Limited
Color primaries : BT.709
Transfer characteristics : BT.709
Matrix coefficients : BT.709

Audio
ID : 2
Format : E-AC-3
Format/Info : Enhanced AC-3
Commercial name : Dolby Digital Plus
Codec ID : A_EAC3
Duration : 2 h 19 min
Bit rate mode : Constant
Bit rate : 640 kb/s
Channel(s) : 6 channels
Channel layout : L R C LFE Ls Rs
Sampling rate : 48.0 kHz
Frame rate : 31.250 FPS (1536 SPF)
Compression mode : Lossy
Stream size : 641 MiB (25%)
Title : Hindi
Language : Hindi
Service kind : Complete Main
Default : No
Forced : No

Text
ID : 3
Format : UTF-8
Codec ID : S_TEXT/UTF8
Codec ID/Info : UTF-8 Plain Text
Duration : 2 h 12 min
Bit rate : 55 b/s
Frame rate : 0.225 FPS
Count of elements : 1797
Stream size : 53.7 KiB (0%)
Title : English
Language : English
Default : No
Forced : No



Screenshots:













Files:

  • Drishyam.2.2022.1080p.AMZN.WEB-DL.DDP5.1.HEVC-themoviesboss.mkv (2.5 GB)

Code:

  • udp://tracker.tiny-vps.com:6969/announce
  • udp://fasttracker.foreverpirates.co:6969/announce
  • udp://tracker.opentrackr.org:1337/announce
  • udp://explodie.org:6969/announce
  • udp://open.stealth.si:80/announce
  • udp://tracker.cyberia.is:6969/announce
  • udp://ipv4.tracker.harry.lu:80/announce
  • udp://tracker.uw0.xyz:6969/announce
  • udp://tracker.dler.org:6969/announce
  • udp://9.rarbg.to:2710/announce
  • udp://open.demonii.com:1337/announce
  • udp://zecircle.xyz:6969/announce
  • udp://tracker.leech.ie:1337/announce
  • udp://tracker.pomf.se:80/announce
  • udp://run-2.publictracker.xyz:6969/announce