HIT The 2nd Case 2022 720p AMZN WEBRip Hindi Cleaned + Telugu AAC x264 - HDWebMovies

  • CategoryMovies
  • TypeBollywood
  • LanguageHindi
  • Total size1 GB
  • Uploaded Byhdwebmovies
  • Downloads930
  • Last checkedJan. 03rd '23
  • Date uploadedJan. 03rd '23
  • Seeders 105
  • Leechers159

HIT: The 2nd Case

Crime Thriller Action

Krishna Dev aka KD, a laidback cop working in Andhra Pradesh State HIT, takes on a gruesome murder case. As KD unravels the layers of the crime, the stakes rise unbelievably high and the threat comes unusually close.

Infohash : 15F729DF2420B41EA51668C433E88E7B5EB3F1EE



Media Info



Format : Matroska
Format version : Version 4
File size : 1.04 GiB
Duration : 1 h 57 min
Overall bit rate : 1 260 kb/s
Encoded date : UTC 2023-01-03 09:55:09
Writing library : libebml v1.4.2 + libmatroska v1.6.4

Video
ID : 1
Format : AVC
Format/Info : Advanced Video Codec
Format profile : [email protected]
Format settings : CABAC / 5 Ref Frames
Format settings, CABAC : Yes
Format settings, Reference frames : 5 frames
Codec ID : V_MPEG4/ISO/AVC
Duration : 1 h 57 min
Bit rate : 874 kb/s
Width : 1 280 pixels
Height : 528 pixels
Display aspect ratio : 2.40:1
Frame rate mode : Constant
Frame rate : 24.000 FPS
Color space : YUV
Chroma subsampling : 4:2:0
Bit depth : 8 bits
Scan type : Progressive
Bits/(Pixel*Frame) : 0.054
Stream size : 736 MiB (69%)
Title : HDWebMovies
Language : English
Default : Yes
Forced : No
Color range : Limited
Color primaries : BT.709
Transfer characteristics : BT.709
Matrix coefficients : BT.709

Audio #1
ID : 2
Format : MPEG Audio
Format version : Version 1
Format profile : Layer 3
Format settings : Joint stereo
Codec ID : A_MPEG/L3
Codec ID/Hint : MP3
Duration : 1 h 57 min
Bit rate mode : Constant
Bit rate : 320 kb/s
Channel(s) : 2 channels
Sampling rate : 44.1 kHz
Frame rate : 38.281 FPS (1152 SPF)
Compression mode : Lossy
Stream size : 270 MiB (25%)
Title : HDWebMovies
Writing library : LAME3.100
Encoding settings : -m j -V 4 -q 2 -lowpass 20.5
Language : Hindi
Default : Yes
Forced : No

Audio #2
ID : 3
Format : AAC LC SBR
Format/Info : Advanced Audio Codec Low Complexity with Spectral Band Replication
Commercial name : HE-AAC
Format settings : Explicit
Codec ID : A_AAC-2
Duration : 1 h 57 min
Bit rate : 64.0 kb/s
Channel(s) : 2 channels
Channel layout : L R
Sampling rate : 48.0 kHz
Frame rate : 23.438 FPS (2048 SPF)
Compression mode : Lossy
Stream size : 53.9 MiB (5%)
Title : HDWebMovies
Language : Telugu
Default : No
Forced : No

Text
ID : 4
Format : UTF-8
Codec ID : S_TEXT/UTF8
Codec ID/Info : UTF-8 Plain Text
Duration : 1 h 53 min
Bit rate : 55 b/s
Frame rate : 0.203 FPS
Count of elements : 1388
Stream size : 46.0 KiB (0%)
Title : HDWebMovies
Language : English
Default : No
Forced : No














------------------------------------------

Files:

  • HIT The 2nd Case 2022 720p AMZN WEBRip Hindi Cleaned + Telugu AAC x264 - HDWebMovies.mkv (1.0 GB)

Code:

  • udp://tracker.tiny-vps.com:6969/announce
  • udp://fasttracker.foreverpirates.co:6969/announce
  • udp://tracker.opentrackr.org:1337/announce
  • udp://explodie.org:6969/announce
  • udp://open.stealth.si:80/announce
  • udp://tracker.cyberia.is:6969/announce
  • udp://ipv4.tracker.harry.lu:80/announce
  • udp://tracker.uw0.xyz:6969/announce
  • udp://tracker.dler.org:6969/announce
  • udp://9.rarbg.to:2710/announce
  • udp://open.demonii.com:1337/announce
  • udp://zecircle.xyz:6969/announce
  • udp://tracker.leech.ie:1337/announce
  • udp://tracker.pomf.se:80/announce
  • udp://run-2.publictracker.xyz:6969/announce