Uunchai.2022.1080p.ZEE5.WEB-DL.Hindi.AAC.H.264-themoviesboss

  • CategoryMovies
  • TypeBollywood
  • LanguageHindi
  • Total size2.3 GB
  • Uploaded Bytmb001
  • Downloads232
  • Last checkedJan. 06th '23
  • Date uploadedJan. 06th '23
  • Seeders 47
  • Leechers88

Uunchai

Comedy Drama Family

Amit, Om, Javed and Bhupen - a group of four friends - have come a long way in life. Bhupen had a lifelong dream of going to Mount Everest with his three friends but the idea is quashed immediately as soon as he expresses it to them during a get-together. However, Bhupen's sudden death leads the trio to leave their cozy Delhi lives and trek to Everest Base Camp as friendship was their only motivation.

Infohash : 717102337E91BD3712C37394CDCBACCF5085CAC9



Uunchai.2022.1080p.ZEE5.WEB-DL.Hindi.AAC.H.264-themoviesboss




Media Info




Format                                   : Matroska
Format version                           : Version 4
File size                                : 2.32 GiB
Duration                                 : 2 h 43 min
Overall bit rate mode                    : Variable
Overall bit rate                         : 2 040 kb/s
Encoded date                             : UTC 2023-01-05 18:43:33
Writing library                          : libebml v1.4.2 + libmatroska v1.6.4

Video
ID                                       : 1
Format                                   : AVC
Format/Info                              : Advanced Video Codec
Format profile                           : [email protected]
Format settings                          : CABAC / 4 Ref Frames
Format settings, CABAC                   : Yes
Format settings, Reference frames        : 4 frames
Codec ID                                 : V_MPEG4/ISO/AVC
Duration                                 : 2 h 43 min
Bit rate mode                            : Variable
Bit rate                                 : 1 910 kb/s
Maximum bit rate                         : 5 500 kb/s
Width                                    : 1 920 pixels
Height                                   : 1 080 pixels
Display aspect ratio                     : 16:9
Frame rate mode                          : Constant
Frame rate                               : 25.000 FPS
Color space                              : YUV
Chroma subsampling                       : 4:2:0
Bit depth                                : 8 bits
Scan type                                : Progressive
Bits/(Pixel*Frame)                       : 0.037
Stream size                              : 2.18 GiB (94%)
Title                                    : themoviesboss
Default                                  : Yes
Forced                                   : No
Color range                              : Limited
Color primaries                          : BT.709
Transfer characteristics                 : BT.709
Matrix coefficients                      : BT.709

Audio
ID                                       : 2
Format                                   : AAC LC SBR
Format/Info                              : Advanced Audio Codec Low Complexity with Spectral Band Replication
Commercial name                          : HE-AAC
Format settings                          : Explicit
Codec ID                                 : A_AAC-2
Duration                                 : 2 h 43 min
Bit rate                                 : 128 kb/s
Channel(s)                               : 2 channels
Channel layout                           : L R
Sampling rate                            : 96.0 kHz
Frame rate                               : 46.875 FPS (2048 SPF)
Compression mode                         : Lossy
Stream size                              : 149 MiB (6%)
Title                                    : themoviesboss
Language                                 : Hindi
Default                                  : Yes
Forced                                   : No

Text
ID                                       : 3
Format                                   : UTF-8
Codec ID                                 : S_TEXT/UTF8
Codec ID/Info                            : UTF-8 Plain Text
Duration                                 : 2 h 35 min
Bit rate                                 : 57 b/s
Frame rate                               : 0.226 FPS
Count of elements                        : 2105
Stream size                              : 64.8 KiB (0%)
Title                                    : themoviesboss
Language                                 : English
Default                                  : Yes
Forced                                   : No



Screenshots:














Files:

  • Uunchai.2022.1080p.ZEE5.WEB-DL.Hindi.AAC2.0.H.264-themoviesboss.mkv (2.3 GB)

Code:

  • udp://tracker.tiny-vps.com:6969/announce
  • udp://fasttracker.foreverpirates.co:6969/announce
  • udp://tracker.opentrackr.org:1337/announce
  • udp://explodie.org:6969/announce
  • udp://open.stealth.si:80/announce
  • udp://tracker.cyberia.is:6969/announce
  • udp://ipv4.tracker.harry.lu:80/announce
  • udp://tracker.uw0.xyz:6969/announce
  • udp://tracker.dler.org:6969/announce
  • udp://9.rarbg.to:2710/announce
  • udp://open.demonii.com:1337/announce
  • udp://zecircle.xyz:6969/announce
  • udp://tracker.leech.ie:1337/announce
  • udp://tracker.pomf.se:80/announce
  • udp://run-2.publictracker.xyz:6969/announce