Avatar.The.Way.of.Water.2022.1080p.UHD.CAM.x264.AAC-AOC

  • CategoryMovies
  • TypeHD
  • LanguageEnglish
  • Total size3.1 GB
  • Uploaded Bydarkzealot
  • Downloads151
  • Last checkedJan. 10th '23
  • Date uploadedJan. 10th '23
  • Seeders 16
  • Leechers56

Avatar: The Way of Water

Science Fiction Action Adventure

Set more than a decade after the events of the first film, learn the story of the Sully family (Jake, Neytiri, and their kids), the trouble that follows them, the lengths they go to keep each other safe, the battles they fight to stay alive, and the tragedies they endure.

Infohash : 9473AC1B0BFF955243B3E03BA2871477372F3C18

Avatar: The Way of Water (2022)
imdb.com/title/tt1630029/


Source torrent: Avatar-The-Way-of-Water-2022-2160p-UHD-CAM-x265-AAC-AOC

        Name  Avatar.The.Way.of.Water.2022.1080p.UHD.CAM.x264.AAC-AOC
Creation Date  2023-01-10 06:26:10 UTC
  Created By  imdl/0.1.12 (164a87d7ad45)
   Info Hash  9473ac1b0bff955243b3e03ba2871477372f3c18
Torrent Size  61.79 KiB
Content Size  3.06 GiB
     Private  no
Announce List  Tier 1: udp://TRACKER.LEECHERS-PARADISE.ORG:6969/ANNOUNCE
                      udp://TRACKER.COPPERSURFER.TK:6969/ANNOUNCE
                      udp://TRACKER.OPENTRACKR.ORG:1337/ANNOUNCE
                      udp://TRACKER.ZER0DAY.TO:1337/ANNOUNCE
                      udp://EDDIE4.NL:6969/ANNOUNCE
  Piece Size  1 MiB
 Piece Count  3137
  File Count  1
       Files  Avatar.The.Way.of.Water.2022.1080p.UHD.CAM.x264.AAC-AOC
              └─Avatar.The.Way.of.Water.2022.1080p.UHD.CAM.x264.AAC-AOC.mp4

Code:

ffmpeg -hwaccel cuda -y -i "Avatar.The.Way.of.Water.2022.2160p.UHD.CAM.x265.AAC-AOC.mkv" -default_mode infer_no_subs -movflags faststart -map 0 -map_chapters -1 -dn -metadata creation_time="$(date --iso-8601=seconds)" -metadata:s:v creation_time="$(date --iso-8601=seconds)" -metadata:s:a creation_time="$(date --iso-8601=seconds)" -metadata comment= -metadata title="${f/x265/x264}" -metadata:s:v:0 title= -metadata:s:a:0 title= -metadata:s:a:0 language=eng -profile:v high -pix_fmt yuv420p -preset slow -strict experimental -max_muxing_queue_size 400 -filter:v scale="1920:trunc(ow/a/2)*2" -c:v h264_nvenc -c:a copy "/media/ffmpeg-vcodec/Avatar.The.Way.of.Water.2022.1080p.UHD.CAM.x264.AAC-AOC.mp4"


General
Complete name                            : Avatar.The.Way.of.Water.2022.1080p.UHD.CAM.x264.AAC-AOC.mp4
Format                                   : MPEG-4
Format profile                           : Base Media
Codec ID                                 : isom (isom/iso2/avc1/mp41)
File size                                : 3.06 GiB
Duration                                 : 3 h 5 min
Overall bit rate mode                    : Variable
Overall bit rate                         : 2 370 kb/s
Encoded date                             : UTC 2023-01-10 05:56:55
Tagged date                              : UTC 2023-01-10 05:56:55
Writing application                      : Lavf58.76.100

Video
ID                                       : 1
Format                                   : AVC
Format/Info                              : Advanced Video Codec
Format profile                           : [email protected]
Format settings                          : CABAC / 4 Ref Frames
Format settings, CABAC                   : Yes
Format settings, Reference frames        : 4 frames
Codec ID                                 : avc1
Codec ID/Info                            : Advanced Video Coding
Duration                                 : 3 h 5 min
Bit rate mode                            : Variable
Bit rate                                 : 1 959 kb/s
Maximum bit rate                         : 6 000 kb/s
Width                                    : 1 920 pixels
Height                                   : 740 pixels
Display aspect ratio                     : 2.595
Frame rate mode                          : Constant
Frame rate                               : 24.000 FPS
Color space                              : YUV
Chroma subsampling                       : 4:2:0
Bit depth                                : 8 bits
Scan type                                : Progressive
Bits/(Pixel*Frame)                       : 0.057
Stream size                              : 2.53 GiB (83%)
Encoded date                             : UTC 2023-01-10 05:56:55
Tagged date                              : UTC 2023-01-10 05:56:55
Color range                              : Limited
Color primaries                          : BT.709
Transfer characteristics                 : BT.709
Matrix coefficients                      : BT.709
Codec configuration box                  : avcC

Audio
ID                                       : 2
Format                                   : AAC LC
Format/Info                              : Advanced Audio Codec Low Complexity
Codec ID                                 : mp4a-40-2
Duration                                 : 3 h 5 min
Bit rate mode                            : Constant
Bit rate                                 : 405 kb/s
Channel(s)                               : 2 channels
Channel layout                           : L R
Sampling rate                            : 48.0 kHz
Frame rate                               : 46.875 FPS (1024 SPF)
Compression mode                         : Lossy
Stream size                              : 536 MiB (17%)
Language                                 : English
Default                                  : Yes
Alternate group                          : 1
Encoded date                             : UTC 2023-01-10 05:56:55
Tagged date                              : UTC 2023-01-10 05:56:55










Files:

Avatar.The.Way.of.Water.2022.1080p.UHD.CAM.x264.AAC-AOC
  • Avatar.The.Way.of.Water.2022.1080p.UHD.CAM.x264.AAC-AOC.mp4 (3.1 GB)

Code:

  • udp://TRACKER.LEECHERS-PARADISE.ORG:6969/ANNOUNCE