Kuttey 2023 720p HQ PreDVD Rip Hindi AAC x264 - HDWebMovies

  • CategoryMovies
  • TypeBollywood
  • LanguageHindi
  • Total size959.3 MB
  • Uploaded Byhdwebmovies
  • Downloads3
  • Last checkedJan. 14th '23
  • Date uploadedJan. 14th '23
  • Seeders 0
  • Leechers0

Infohash : 9ACB4858B04ACFBC57EEB4755B8E8A642B2D74D4



File Info



Quote:

Format : AVC
Format/Info : Advanced Video Codec
Format profile : [email protected]
Format settings : CABAC / 4 Ref Frames
Format settings, CABAC : Yes
Format settings, Reference frames : 4 frames
Codec ID : V_MPEG4/ISO/AVC
Duration : 1 h 45 min
Bit rate : 1 123 kb/s
Width : 1 280 pixels
Height : 544 pixels
Display aspect ratio : 2.35:1
Original display aspect ratio : 2.35:1
Frame rate mode : Constant
Frame rate : 25.000 FPS
Color space : YUV
Chroma subsampling : 4:2:0
Bit depth : 8 bits
Scan type : Progressive
Bits/(Pixel*Frame) : 0.065
Stream size : 849 MiB (94%)
Writing library : x264 core 164 r3100 ed0f7a6
Default : Yes
Forced : No
Color range : Limited
Color primaries : BT.709
Transfer characteristics : BT.709
Matrix coefficients : BT.709

Audio
ID : 2
Format : AAC LC
Format/Info : Advanced Audio Codec Low Complexity
Codec ID : A_AAC-2
Duration : 1 h 45 min
Bit rate : 64.5 kb/s
Channel(s) : 2 channels
Channel layout : L R
Sampling rate : 44.1 kHz
Frame rate : 43.066 FPS (1024 SPF)
Compression mode : Lossy
Delay relative to video : -23 ms
Stream size : 48.8 MiB (5%)
Language : Hindi
Default : Yes
Forced : No



Screenshots:















____________________________________

Files:

Kuttey 2023 720p HQ PreDVD Rip Hindi AAC x264 - HDWebMovies
  • Kuttey 2023 HQ PreDVD Sample - HDWebMovies.mkv (59.9 MB)
  • Kuttey 2023 720p HQ PreDVD Rip Hindi AAC x264 - HDWebMovies.mkv (899.4 MB)

Code:

  • udp://tracker.tiny-vps.com:6969/announce
  • udp://fasttracker.foreverpirates.co:6969/announce
  • udp://tracker.opentrackr.org:1337/announce
  • udp://explodie.org:6969/announce
  • udp://open.stealth.si:80/announce
  • udp://tracker.cyberia.is:6969/announce
  • udp://ipv4.tracker.harry.lu:80/announce
  • udp://tracker.uw0.xyz:6969/announce
  • udp://tracker.dler.org:6969/announce
  • udp://9.rarbg.to:2710/announce
  • udp://open.demonii.com:1337/announce
  • udp://zecircle.xyz:6969/announce
  • udp://tracker.leech.ie:1337/announce
  • udp://tracker.pomf.se:80/announce
  • udp://run-2.publictracker.xyz:6969/announce