Mission Majnu (2023) 1080p 10bit NF WEBRip x265 HEVC Hindi MSubs ~ C0SM0S [PMZ]

  • CategoryMovies
  • TypeBollywood
  • LanguageHindi
  • Total size1.6 GB
  • Uploaded ByPMZOfficial
  • Downloads73
  • Last checkedJan. 20th '23
  • Date uploadedJan. 20th '23
  • Seeders 0
  • Leechers0

Mission Majnu

Thriller Action Drama

Set in the 1970s, an undercover Indian spy takes on a deadly mission to expose a covert nuclear weapons program in the heart of Pakistan.

Infohash : DB5DB0740901326F2724F008B5C3E4C19B2B3E13


Mission Majnu (2023) 1080p 10bit NF WEBRip x265 HEVC Hindi MSubs ~ C0SM0S [PMZ]


Code:

Media Info :

Complete name : Mission Majnu (2023) 1080p 10bit NF WEBRip x265 HEVC Hindi MSubs ~ C0SM0S [PMZ].mkv
Format : Matroska
Format version : Version 4
File size : 1.60 GiB
Duration : 2 h 9 min
Overall bit rate : 1 765 kb/s
Movie name : PMZ Exclusive Release
Encoded date : UTC 2023-01-20 14:59:17
Writing application : mkvmerge v73.0.0 ('25 or 6 to 4') 64-bit
Writing library : libebml v1.4.4 + libmatroska v1.7.1

Video
ID : 1
Format : HEVC
Format/Info : High Efficiency Video Coding
Format profile : Main [email protected]@Main
Codec ID : V_MPEGH/ISO/HEVC
Duration : 2 h 9 min
Bit rate : 1 123 kb/s
Width : 1 920 pixels
Height : 804 pixels
Display aspect ratio : 2.40:1
Frame rate mode : Constant
Frame rate : 24.000 FPS
Color space : YUV
Chroma subsampling : 4:2:0 (Type 0)
Bit depth : 10 bits
Bits/(Pixel*Frame) : 0.030
Stream size : 1.02 GiB (64%)
Title : ~PMZ~
Default : Yes
Forced : No
Color range : Limited
Color primaries : BT.709
Transfer characteristics : BT.709
Matrix coefficients : BT.709

Audio
ID : 2
Format : E-AC-3
Format/Info : Enhanced AC-3
Commercial name : Dolby Digital Plus
Codec ID : A_EAC3
Duration : 2 h 9 min
Bit rate mode : Constant
Bit rate : 640 kb/s
Channel(s) : 6 channels
Channel layout : L R C LFE Ls Rs
Sampling rate : 48.0 kHz
Frame rate : 31.250 FPS (1536 SPF)
Compression mode : Lossy
Delay relative to video : -21 ms
Stream size : 592 MiB (36%)
Title : ~PMZ~
Language : Hindi
Service kind : Complete Main
Default : Yes
Forced : No

Text
ID : 3
Format : ASS
Codec ID : S_TEXT/ASS
Codec ID/Info : Advanced Sub Station Alpha
Duration : 2 h 7 min
Bit rate : 93 b/s
Count of elements : 1631
Compression mode : Lossless
Stream size : 87.3 KiB (0%)
Title : ~PMZ~
Language : English
Default : No
Forced : No





If you plan on sharing this release elsewhere, please give proper credits to PMZ. Please do not alter any of the files in this release. Thank you!




?Screenshots :










Quote:

Source Info :
1080p WEB-DL


Files:

  • Mission Majnu (2023) 1080p 10bit NF WEBRip x265 HEVC Hindi MSubs _ C0SM0S [PMZ].mkv (1.6 GB)

Code:

  • udp://tracker.opentrackr.org:1337/announce
  • udp://9.rarbg.com:2810/announce
  • udp://opentracker.i2p.rocks:6969/announce
  • https://opentracker.i2p.rocks:443/announce
  • udp://tracker.torrent.eu.org:451/announce
  • udp://tracker.moeking.me:6969/announce
  • udp://tracker.dler.org:6969/announce
  • udp://p4p.arenabg.com:1337/announce
  • udp://open.stealth.si:80/announce
  • udp://open.demonii.com:1337/announce
  • udp://ipv4.tracker.harry.lu:80/announce
  • udp://explodie.org:6969/announce
  • udp://exodus.desync.com:6969/announce
  • https://tracker.tamersunion.org:443/announce
  • https://tracker.nanoha.org:443/announce
  • https://tracker.lilithraws.org:443/announce
  • https://tr.burnabyhighstar.com:443/announce
  • http://tracker.mywaifu.best:6969/announce
  • udp://zecircle.xyz:6969/announce
  • udp://www.peckservers.com:9000/announce