Enemy.2021.1080.DS4K.10bit.WEBRip.[Hindi DD2.0 + Tamil DDP5.1].Esubs.HEVC-IONICBOY

  • CategoryMovies
  • TypeDubs/Dual Audio
  • LanguageHindi
  • Total size4.7 GB
  • Uploaded ByIONICBOII
  • Downloads167
  • Last checkedJan. 23rd '23
  • Date uploadedJan. 23rd '23
  • Seeders 14
  • Leechers58

Infohash : 94263B4321B1A0168F2BBEEA737C9CC4842D13B9


Join Our Telegram For More Updates And Encodes




Enemy | 1080p | DS4K | 10bit 


? Hindi DD2.0 + Tamil DDP5.1 





SCREEN SHOTS
















MEDIA INFO



Code:



General
Format                         : Matroska
Format version                 : Version 4 / Version 2
File size                      : 4.72 GiB
Duration                       : 2 h 37 min
Overall bit rate               : 4 297 kb/s

Video
ID                             : 1
Format                         : HEVC
Format/Info                    : High Efficiency Video Coding
Format profile                 : Main [email protected]@Main
Codec ID                       : V_MPEGH/ISO/HEVC
Duration                       : 2 h 37 min
Bit rate                       : 3 655 kb/s
Width                          : 1 920 pixels
Height                         : 818 pixels
Display aspect ratio           : 2.35:1
Frame rate mode                : Constant
Frame rate                     : 24.000 FPS
Color space                    : YUV
Chroma subsampling             : 4:2:0 (Type 0)
Bit depth                      : 10 bits
Bits/(Pixel*Frame)             : 0.097
Stream size                    : 4.01 GiB (85%)
Title                          : 1080p || DS4K || 10bit || IONICBOY
Default                        : Yes
Forced                         : No
Color range                    : Limited
Color primaries                : BT.709
Transfer characteristics       : BT.709
Matrix coefficients            : BT.709

Audio #1
ID                             : 2
Format                         : E-AC-3
Format/Info                    : Enhanced Audio Coding 3
Format profile                 : E-AC-3+Atmos / E-AC-3
Format settings, Endianness    : Big
Codec ID                       : A_EAC3
Duration                       : 2 h 37 min
Bit rate mode                  : Constant
Bit rate                       : 448 kb/s
Channel(s)                     : 15 objects / 6 channels
Channel positions              : 15 objects / Front: L C R, Side: L R, LFE
Sampling rate                  : 48.0 kHz
Frame rate                     : 187.500 FPS (256 SPF)
Compression mode               : Lossy
Stream size                    : 504 MiB (10%)
Title                          : [Ionicboy] Tamil
Language                       : Tamil
Service kind                   : Complete Main
Default                        : No
Forced                         : No

Audio #2
ID                             : 3
Format                         : AC-3
Format/Info                    : Audio Coding 3
Format settings, Endianness    : Big
Codec ID                       : A_AC3
Duration                       : 2 h 37 min
Bit rate mode                  : Constant
Bit rate                       : 192 kb/s
Channel(s)                     : 2 channels
Channel positions              : Front: L R
Sampling rate                  : 48.0 kHz
Frame rate                     : 31.250 FPS (1536 SPF)
Bit depth                      : 16 bits
Compression mode               : Lossy
Stream size                    : 216 MiB (4%)
Title                          : [Ionicboy] Hindi
Service kind                   : Complete Main
Default                        : Yes
Forced                         : No

Text
ID                             : 4
Format                         : UTF-8
Codec ID                       : S_TEXT/UTF8
Codec ID/Info                  : UTF-8 Plain Text
Duration                       : 2 h 37 min
Bit rate                       : 71 b/s
Count of elements              : 2415
Stream size                    : 82.2 KiB (0%)
Title                          : [Ionicboy] English
Language                       : English
Default                        : Yes
Forced                         : No





Quote:


Video Source : 2160p TK Web-Dl - DDH




Quote:


Audio Source:-  Hindi Tvdl Audio By Mr.Anonymous
Perfectly synced by Arya





Files:

  • Enemy.2021.1080.DS4K.10bit.WEBRip.[Hindi DD2.0 + Tamil DDP5.1].Esubs.HEVC-IONICBOY.mkv (4.7 GB)

Code:

  • udp://tracker.opentrackr.org:1337/announce
  • udp://9.rarbg.com:2810/announce
  • udp://tracker.torrent.eu.org:451/announce
  • udp://tracker.dler.org:6969/announce
  • udp://p4p.arenabg.com:1337/announce
  • udp://opentracker.i2p.rocks:6969/announce
  • udp://open.stealth.si:80/announce
  • udp://open.demonii.com:1337/announce
  • udp://ipv4.tracker.harry.lu:80/announce
  • udp://explodie.org:6969/announce
  • udp://exodus.desync.com:6969/announce
  • https://tracker.nanoha.org:443/announce
  • https://tracker.lilithraws.org:443/announce
  • https://tr.burnabyhighstar.com:443/announce
  • https://opentracker.i2p.rocks:443/announce
  • udp://zecircle.xyz:6969/announce
  • udp://www.peckservers.com:9000/announce
  • udp://wepzone.net:6969/announce
  • udp://vibe.sleepyinternetfun.xyz:1738/announce
  • udp://v2.iperson.xyz:6969/announce