The.Pale.Blue.Eye.2022.1080p.10bit.NF.WEBRip.[Hindi.DDP5.1+English.DDP5.1].Esubs.HEVC-IONICBOY

  • CategoryMovies
  • TypeDubs/Dual Audio
  • LanguageEnglish
  • Total size3.1 GB
  • Uploaded ByIONICBOII
  • Downloads262
  • Last checkedJan. 24th '23
  • Date uploadedJan. 24th '23
  • Seeders 40
  • Leechers67

The Pale Blue Eye

Mystery Thriller

A seasoned detective investigates a series of murders at the U.S. Military Academy in West Point in 1830. He is assisted in his investigation by an intelligent and eager young cadet named Edgar Allan Poe, who will go on to become one of America's most influential authors and the originator of the detective genre.

Infohash : AF049D9E82E7724E0E7D30F36DAABA78FED623BD


Join Our Telegram For More Updates And Encodes




The Pale Blue Eye | 1080p | 10Bit 


? HIndi DDP5.1 + English DDP5.1 





SCREEN SHOTS


















MEDIA INFO



Code:



Generalkv
Format : Matroska
Format version : Version 4 / Version 2
File size : 3.11 GiB
Duration : 2 h 10 min
Overall bit rate : 3 422 kb/s

Video
ID : 1
Format : HEVC
Format/Info : High Efficiency Video Coding
Format profile : Main [email protected]@Main
Codec ID : V_MPEGH/ISO/HEVC
Duration : 2 h 10 min
Bit rate : 2 012 kb/s
Width : 1 920 pixels
Height : 802 pixels
Display aspect ratio : 2.40:1
Frame rate mode : Constant
Frame rate : 24.000 FPS
Color space : YUV
Chroma subsampling : 4:2:0 (Type 0)
Bit depth : 10 bits
Bits/(Pixel*Frame) : 0.054
Stream size : 1.83 GiB (59%)
Title : 1080p || 10Bit || IONICBOY
Default : Yes
Forced : No
Color range : Limited
Color primaries : BT.709
Transfer characteristics : BT.709
Matrix coefficients : BT.709

Audio #1
ID : 2
Format : E-AC-3
Format/Info : Enhanced Audio Coding 3
Format profile : E-AC-3+Atmos / E-AC-3
Format settings, Endianness : Big
Codec ID : A_EAC3
Duration : 2 h 10 min
Bit rate mode : Constant
Bit rate : 768 kb/s
Channel(s) : 15 objects / 6 channels
Channel positions : 15 objects / Front: L C R, Side: L R, LFE
Sampling rate : 48.0 kHz
Frame rate : 187.500 FPS (256 SPF)
Compression mode : Lossy
Stream size : 715 MiB (22%)
Title : [Ionicboy] English
Language : English
Service kind : Complete Main
Default : No
Forced : No

Audio #2
ID : 3
Format : E-AC-3
Format/Info : Enhanced Audio Coding 3
Format settings, Endianness : Big
Codec ID : A_EAC3
Duration : 2 h 10 min
Bit rate mode : Constant
Bit rate : 640 kb/s
Channel(s) : 6 channels
Channel positions : Front: L C R, Side: L R, LFE
Sampling rate : 48.0 kHz
Frame rate : 187.500 FPS (256 SPF)
Compression mode : Lossy
Stream size : 596 MiB (19%)
Title : [Ionicboy] हिन्दी
Language : Hindi
Service kind : Complete Main
Default : Yes
Forced : No

Text
ID : 4
Format : UTF-8
Codec ID : S_TEXT/UTF8
Codec ID/Info : UTF-8 Plain Text
Duration : 2 h 2 min
Bit rate : 58 b/s
Count of elements : 1557
Stream size : 52.4 KiB (0%)
Title : [Ionicboy] English
Language : English
Default : No
Forced : No





Quote:


Video Source : 1080p NF WEBDL




Quote:


Audio Source:-  Kyogo





Files:

  • The.Pale.Blue.Eye.2022.1080p.10bit.NF.WEBRip.[Hindi DDP5.1 + English DDP5.1].Esubs.HEVC-IONICBOY.mkv (3.1 GB)

Code:

  • udp://tracker.opentrackr.org:1337/announce
  • udp://9.rarbg.com:2810/announce
  • udp://tracker.torrent.eu.org:451/announce
  • udp://tracker.dler.org:6969/announce
  • udp://p4p.arenabg.com:1337/announce
  • udp://opentracker.i2p.rocks:6969/announce
  • udp://open.stealth.si:80/announce
  • udp://open.demonii.com:1337/announce
  • udp://ipv4.tracker.harry.lu:80/announce
  • udp://explodie.org:6969/announce
  • udp://exodus.desync.com:6969/announce
  • https://tracker.nanoha.org:443/announce
  • https://tracker.lilithraws.org:443/announce
  • https://tr.burnabyhighstar.com:443/announce
  • https://opentracker.i2p.rocks:443/announce
  • udp://zecircle.xyz:6969/announce
  • udp://www.peckservers.com:9000/announce
  • udp://wepzone.net:6969/announce
  • udp://vibe.sleepyinternetfun.xyz:1738/announce
  • udp://v2.iperson.xyz:6969/announce