Emanuelle nera Orient Reportage - Emmanuelle in Bangkok (1976) 1080p h264 Ac3 Ita Eng Sub Eng-MIRCrew

  • CategoryMovies
  • TypeHD
  • LanguageEnglish
  • Total size2 GB
  • Uploaded Byrobbyrs
  • Downloads32
  • Last checkedJan. 24th '23
  • Date uploadedJan. 24th '23
  • Seeders 6
  • Leechers18

Infohash : E862989CB2F5D4F73761401B4BDEF5F70CF400AC

Emanuelle nera Orient Reportage - Emmanuelle in Bangkok (1976) 1080p h264 Ac3 Ita Eng Sub Eng-MIRCrew




NO FOUND ONLY ORIGINAL RELEASE

My release is always in double track audio italian and Original audio
for select it use VLC or dvd player home
not use wmp


Emanuelle nera Orient Reportage - Emmanuelle in Bangkok (1976)

Quality MIRCrew in HD 1080p da 1,96 gb







Titolo originale Emanuelle nera - Orient Reportage
Paese di produzione Italia
Anno 1976
Durata 105 min
Genere erotico
Regia Joe D'Amato
Soggetto Maria Pia Fusco, Piero Vivarelli, Ottavio Alessi
Sceneggiatura Maria Pia Fusco
Fotografia Aristide Massaccesi
Montaggio Vincenzo Tomassi
Musiche Nico Fidenco
Scenografia Franco Gaudenzi



Laura Gemser: Mae Jordan, detta Emanuelle
Gabriele Tinti: Robert
Ely Galleani: Frances
Ivan Rassimov: principe Sanit
Venantino Venantini: console
Giacomo Rossi Stuart: Jimmy
Koike Mahoco: Gee
Fausto Di Bella:
Chris Avram: Thomas Quizet
Debra Berger: Debora



La fotoreporter Emanuelle è perennemente in viaggio, alla ricerca dello scoop giusto per la sua rivista.

A Venezia incontra l'amico Robert. I due si recano a Bangkok, dove lui si dedica ai suoi scavi archeologici e lei è ospite del principe Sanit, che vuole insegnarle a raggiungere il perfetto orgasmo.



Journalist Emanuelle travels to the Orient to interview a close relative of a King, but comes too close to uncovering official secrets for the state's liking. Her hotel room is ransacked and her passport stolen, leaving her stranded and at the mercy of a brutal gang of rapists, employed by the government. Her only hope of escape are her powers of seduction













[spoiler]

General

Complete name : Emanuelle nera orient reportage - Emmanuelle in bangkok (1976) 1080p h264 Ac3 Ita Eng Sub Eng-MIRCrew.mkv
Format : Matroska
Format version : Version 2
File size : 1.96 GiB
Duration : 1h 34mn
Overall bit rate : 2 968 Kbps
Movie name : MIRCrew
Encoded date : UTC 2023-01-18T17:07:21Z
Writing application : mkvmerge v5.8.0 ('No Sleep / Pillow') built on Sep 2 2012 15:37:04
Writing library : Lavf55.12.0

Video
ID : 1
Format : AVC
Format/Info : Advanced Video Codec
Format profile : [email protected]
Format settings, CABAC : Yes
Format settings, ReFrames : 4 frames
Codec ID : V_MPEG4/ISO/AVC
Duration : 1h 34mn
Bit rate : 2 600 Kbps
Width : 1 920 pixels
Height : 1 024 pixels
Display aspect ratio : 1.875
Frame rate : 23.976 fps
Color space : YUV
Chroma subsampling : 4:2:0
Bit depth : 8 bits
Scan type : Progressive
Bits/(Pixel*Frame) : 0.055
Stream size : 1.66 GiB (85%)
Title : MIRCrew
Writing library : x264 core 142 r2479 dd79a61
Encoding settings : cabac=1 / ref=1 / deblock=1:0:0
Language : Italian
Default : Yes
Forced : No
Color primaries : BT.709-5, BT.1361, IEC 61966-2-4, SMPTE RP177
Transfer characteristics : BT.709-5, BT.1361
Matrix coefficients : BT.709-5, BT.1361, IEC 61966-2-4 709, SMPTE RP177

Audio #1
ID : 2
Format : AC-3
Format/Info : Audio Coding 3
Mode extension : CM (complete main)
Codec ID : A_AC3
Duration : 1h 34mn
Bit rate mode : Constant
Bit rate : 192 Kbps
Channel(s) : 2 channels
Channel positions : Front: L R
Sampling rate : 48.0 KHz
Bit depth : 16 bits
Compression mode : Lossy
Delay relative to video : -5ms
Stream size : 130 MiB (6%)
Title : Ita Ac3 2.0
Language : Italian
Default : Yes
Forced : No

Audio #2
ID : 3
Format : AC-3
Format/Info : Audio Coding 3
Mode extension : CM (complete main)
Codec ID : A_AC3
Duration : 1h 34mn
Bit rate mode : Constant
Bit rate : 192 Kbps
Channel(s) : 2 channels
Channel positions : Front: L R
Sampling rate : 48.0 KHz
Bit depth : 16 bits
Compression mode : Lossy
Delay relative to video : -5ms
Stream size : 130 MiB (6%)
Title : Eng Ac3 2.0
Language : English
Default : No
Forced : No

Text
ID : 4
Format : ASS
Codec ID : S_TEXT/ASS
Codec ID/Info : Advanced Sub Station Alpha
Compression mode : Lossless
Title : Eng
Language : English
Default : No
Forced : No

Menu
00:00:00.000 : :Chapter 1
00:04:27.725 : :Chapter 2
00:13:16.128 : :Chapter 3
00:16:52.928 : :Chapter 4
00:22:38.774 : :Chapter 5
00:29:47.660 : :Chapter 6
00:34:36.783 : :Chapter 7
00:44:34.755 : :Chapter 8
00:49:48.735 : :Chapter 9
00:56:30.011 : :Chapter 10
01:02:15.773 : :Chapter 11
01:06:42.498 : :Chapter 12
01:13:55.055 : :Chapter 13
01:18:28.870 : :Chapter 14
01:25:48.893 : :Chapter 15
01:31:52.673 : :Chapter 16



[/spoiler]





Files:

  • Emanuelle nera orient reportage - Emmanuelle in bangkok (1976) 1080p h264 Ac3 Ita Eng Sub Eng-MIRCrew.mkv (2.0 GB)

Code:

  • udp://tracker.torrent.eu.org:451/announce
  • udp://tracker.openbittorrent.com:6969/announce
  • udp://p4p.arenabg.com:1337/announce
  • udp://explodie.org:6969/announce
  • udp://tracker.opentrackr.org:1337/announce
  • udp://opentracker.i2p.rocks:6969/announce
  • udp://exodus.desync.com:6969/announce
  • udp://ipv4.tracker.harry.lu:80/announce
  • udp://open.stealth.si:80/announce
  • udp://9.rarbg.me:2860
  • udp://9.rarbg.to:2840