Night on Earth - Taxisti di notte (1991) 1080p h264 Ac3 Ita Eng Sub Ita Eng-MIRCrew

  • CategoryMovies
  • TypeHD
  • LanguageEnglish
  • Total size2.5 GB
  • Uploaded Byrobbyrs
  • Downloads0
  • Last checkedJan. 24th '23
  • Date uploadedJan. 24th '23
  • Seeders 0
  • Leechers0

Infohash : F28B539B0922A1C10754C91495F9323469F1821C

Night on Earth - Taxisti di notte (1991) 1080p h264 Ac3 Ita Eng Sub Ita Eng-MIRCrew




NO FOUND ONLY ORIGINAL RELEASE

My release is always in double track audio italian and Original audio
for select it use VLC or dvd player home
not use wmp


Taxisti di notte - Night on Earth (1991)

Quality MIRCrew in HD 1080p da 2,52 gb







Riconoscimenti

1993 - Independent Spirit Awards
Miglior fotografia

Titolo originale Night on Earth
Lingua originale inglese, francese, italiano, finlandese, tedesco
Paese di produzione Stati Uniti d'America, Giappone, Francia, Regno Unito, Germania
Anno 1991
Durata 129 min
Rapporto 1,85 : 1
Genere commedia, grottesco
Regia Jim Jarmusch
Soggetto Jim Jarmusch
Sceneggiatura Jim Jarmusch





Gena Rowlands: Victoria Snelling
Winona Ryder: Corky
Béatrice Dalle: la donna cieca
Armin Mueller-Stahl: Helmut Grokenberger
Giancarlo Esposito: Yoyo
Rosie Perez: Angela
Isaach De Bankolé: il tassista di Parigi
Roberto Benigni: il tassista di Roma
Paolo Bonacelli: il sacerdote
Matti Pellonpää: Mika, il tassista di Helsinki
Kari Väänänen: un passeggero di Helsinki
Sakari Kuosmanen: un passeggero di Helsinki
Tomi Salmela: un passeggero di Helsinki





Taxisti di notte (Night on Earth) è un film a episodi del 1991, diretto da Jim Jarmusch e interpretato, tra gli altri, da Roberto Benigni, Winona Ryder e Béatrice Dalle. La pellicola fu prodotta dalla giapponese JVC e Jim Jarmusch ne scrisse il trattamento in otto giorni. In Italia il film è uscito anche con il titolo di Taxisti di notte - Los Angeles New York Parigi Roma Helsinki.



A collection of five stories involving cab drivers in five different cities. Los Angeles - A talent agent for the movies discovers her cab driver would be perfect to cast, but the cabbie is reluctant to give up her solid cab driver's career. New York - An immigrant cab driver is continually lost in a city and culture he doesn't understand.













[spoiler]

General

Complete name : Taxisti di notte - Night on Earth (1991) 1080p h264 Ac3 Ita Eng Sub Ita Eng-MIRCrew.mkv
Format : Matroska
Format version : Version 2
File size : 2.52 GiB
Duration : 2h 3mn
Overall bit rate : 2 934 Kbps
Movie name : MIRCrew
Encoded date : UTC 2023-01-24T12:24:46Z
Writing application : mkvmerge v5.8.0 ('No Sleep / Pillow') built on Sep 2 2012 15:37:04
Writing library : Lavf55.12.0

Video
ID : 1
Format : AVC
Format/Info : Advanced Video Codec
Format profile : [email protected]
Format settings, CABAC : Yes
Format settings, ReFrames : 4 frames
Codec ID : V_MPEG4/ISO/AVC
Duration : 2h 3mn
Bit rate : 2 600 Kbps
Width : 1 920 pixels
Height : 1 072 pixels
Display aspect ratio : 16:9
Frame rate : 25.000 fps
Color space : YUV
Chroma subsampling : 4:2:0
Bit depth : 8 bits
Scan type : Progressive
Bits/(Pixel*Frame) : 0.051
Stream size : 2.14 GiB (85%)
Title : MIRCrew
Writing library : x264 core 142 r2479 dd79a61
Encoding settings : cabac=1 / ref=1 / deblock=1:0:0 /
Default : Yes
Forced : No
Color primaries : BT.709-5, BT.1361, IEC 61966-2-4, SMPTE RP177
Transfer characteristics : BT.709-5, BT.1361
Matrix coefficients : BT.709-5, BT.1361, IEC 61966-2-4 709, SMPTE RP177

Audio #1
ID : 2
Format : AC-3
Format/Info : Audio Coding 3
Mode extension : CM (complete main)
Codec ID : A_AC3
Duration : 2h 3mn
Bit rate mode : Constant
Bit rate : 192 Kbps
Channel(s) : 1 channel
Channel positions : Front: C
Sampling rate : 48.0 KHz
Bit depth : 16 bits
Compression mode : Lossy
Delay relative to video : -5ms
Stream size : 169 MiB (7%)
Title : Ita Ac3 1.0
Language : Italian
Default : Yes
Forced : No

Audio #2
ID : 3
Format : AC-3
Format/Info : Audio Coding 3
Mode extension : CM (complete main)
Codec ID : A_AC3
Duration : 2h 3mn
Bit rate mode : Constant
Bit rate : 192 Kbps
Channel(s) : 2 channels
Channel positions : Front: L R
Sampling rate : 48.0 KHz
Bit depth : 16 bits
Compression mode : Lossy
Delay relative to video : -5ms
Stream size : 169 MiB (7%)
Title : Eng Ac3 2.0
Language : English
Default : No
Forced : No

Text #1
ID : 4
Format : ASS
Codec ID : S_TEXT/ASS
Codec ID/Info : Advanced Sub Station Alpha
Compression mode : Lossless
Title : Forced ita
Language : Italian
Default : Yes
Forced : Yes

Text #2
ID : 5
Format : ASS
Codec ID : S_TEXT/ASS
Codec ID/Info : Advanced Sub Station Alpha
Compression mode : Lossless
Title : Ita
Language : Italian
Default : No
Forced : No

Text #3
ID : 6
Format : PGS
Muxing mode : zlib
Codec ID : S_HDMV/PGS
Codec ID/Info : The same subtitle format used on BDs/HD-DVDs
Title : Eng
Language : English
Default : No
Forced : No

Text #4
ID : 7
Format : PGS
Muxing mode : zlib
Codec ID : S_HDMV/PGS
Codec ID/Info : The same subtitle format used on BDs/HD-DVDs
Title : Eng
Language : English
Default : No
Forced : No

Menu
00:00:00.000 : :Los Angeles
00:10:31.360 : :Mr. Kincaid
00:14:43.480 : :“I Yam what I Yam”
00:19:01.440 : :A Brilliant Streak
00:21:39.160 : :Movie Star
00:26:08.920 : :New York
00:32:25.600 : :Helmut and YoYo
00:36:58.720 : :Angela
00:40:39.440 : :The Last Word
00:43:57.120 : :Two Rights
00:49:26.600 : :Paris
00:54:34.480 : :Preferred Route
00:59:04.080 : :Curiosity
01:04:56.160 : :“Are you Blind or What?”
01:07:50.600 : :Rome
01:13:29.800 : :No Smoking
01:17:15.880 : :Confession
01:22:44.680 : :“Pumpkins, Sheep, My Sister-in-law”
01:33:05.160 : :Helsinki
01:36:41.360 : :Bad Day
01:44:15.880 : :“Things could have been Worse”



[/spoiler]





Files:

  • Taxisti di notte - Night on Earth (1991) 1080p h264 Ac3 Ita Eng Sub Ita Eng-MIRCrew.mkv (2.5 GB)

Code:

  • udp://tracker.torrent.eu.org:451/announce
  • udp://tracker.openbittorrent.com:6969/announce
  • udp://p4p.arenabg.com:1337/announce
  • udp://explodie.org:6969/announce
  • udp://tracker.opentrackr.org:1337/announce
  • udp://opentracker.i2p.rocks:6969/announce
  • udp://exodus.desync.com:6969/announce
  • udp://ipv4.tracker.harry.lu:80/announce
  • udp://open.stealth.si:80/announce
  • udp://9.rarbg.me:2860
  • udp://9.rarbg.to:2840