One Night Stand Murder 2023 720p WEB h264-BAE

  • CategoryMovies
  • Typeh.264/x264
  • LanguageEnglish
  • Total size1.5 GB
  • Uploaded Bymazemaze16
  • Downloads56
  • Last checkedSep. 20th '23
  • Date uploadedSep. 19th '23
  • Seeders 12
  • Leechers15

One Night Stand Murder

Drama Mystery

Alyssa wakes up in a home that's not hers and discovers a dead body. With no memory of how she got there, and no idea of who he is, Alyssa tries to piece together what exactly happened the night before.

Infohash : 310E9518B01412F3904B15EF39A85DA9948C2A9F



One Night Stand Murder 2023 720p WEB h264-BAE




Video
ID : 1
Format : AVC
Format/Info : Advanced Video Codec
Format profile : [emailĀ protected]
Format settings : CABAC / 4 Ref Frames
Format settings, CABAC : Yes
Format settings, Reference frames : 4 frames
Codec ID : V_MPEG4/ISO/AVC
Duration : 1 h 25 min
Bit rate : 2 472 kb/s
Width : 1 280 pixels
Height : 720 pixels
Display aspect ratio : 16:9

Audio
ID : 2
Format : AAC LC
Format/Info : Advanced Audio Codec Low Complexity
Codec ID : A_AAC-2
Duration : 1 h 25 min
Bit rate : 61.4 kb/s
Channel(s) : 2 channels
Channel layout : L R
Sampling rate : 48.0 kHz
Frame rate : 46.875 FPS (1024 SPF)
Compression mode : Lossy
Stream size : 37.4 MiB (2%)
Default : Yes
Forced : No

Text
ID : 3
Format : UTF-8
Codec ID : S_TEXT/UTF8
Codec ID/Info : UTF-8 Plain Text
Duration : 1 h 24 min
Bit rate : 68 b/s
Count of elements : 1543
Stream size : 42.6 KiB (0%)
Language : English
Default : No
Forced : No


Screens:



Files:

  • One.Night.Stand.Murder.2023.720p.WEB.h264-BAE.mkv (1.5 GB)

Code:

  • udp://tracker.opentrackr.org:1337/announce
  • udp://exodus.desync.com:6969/announce
  • udp://9.rarbg.me:2970/announce
  • udp://tracker.opentrackr.org:1337/announce
  • udp://tracker.tiny-vps.com:6969/announce
  • udp://tracker.internetwarriors.net:1337/announce
  • udp://opentor.org:2710/announce
  • udp://tracker.torrent.eu.org:451/announce
  • udp://explodie.org:6969/announce
  • udp://tracker.moeking.me:6969/announce
  • udp://tracker.cyberia.is:6969/announce
  • udp://9.rarbg.me:2980/announce
  • udp://9.rarbg.to:2940/announce
  • udp://tracker.uw0.xyz:6969/announce
  • udp://tracker.openbittorrent.com:1337/announce